Subcategories

Art Tatum - The Tatum Group Masterpieces Vol. 8 [Recorded 1956] (XRCD, 2001)

Posted By: gribovar
Art Tatum - The Tatum Group Masterpieces Vol. 8 [Recorded 1956] (XRCD, 2001)

Art Tatum - The Tatum Group Masterpieces Vol. 8 [Recorded 1956] (XRCD, 2001)
EAC Rip | FLAC (tracks+.cue+log) - 295 MB | MP3 CBR 320 kbps (LAME 3.93) - 134 MB | Covers - 21 MB
Genre: Jazz, Piano Jazz | RAR 3% Rec. | Label: JVC (JVCXR-0034-2)

The final volume in this very worthy series is a comparatively relaxed affair, a quartet set with tenor saxophonist Ben Webster. Webster lets Tatum fill the background with an infinite number of notes while emphasizing his warm tenor in the forefront on a variety of melodic ballads and standards. The combination works very well.
Tracklist:
01. Gone With The Wind
02. All The Things You Are
03. Have You Met Miss Jones?
04. My One And Only Love
05. Night And Day
06. My Ideal
07. Where Or When
08. Gone With The Wind (Alternate take 1) (Bonus track)
09. Gone With The Wind (Alternate take 2) (Bonus track)
10. Have You Met Miss Jones? (Alternate take) (Bonus track)

Total time: 57:14

Exact Audio Copy V0.99 prebeta 5 from 4. May 2009

EAC extraction logfile from 2. August 2009, 21:13

Art Tatum / The Tatum Group Masterpieces

Used drive : PLEXTOR CD-R PREMIUM2 Adapter: 2 ID: 3

Read mode : Secure
Utilize accurate stream : Yes
Defeat audio cache : Yes
Make use of C2 pointers : No

Read offset correction : 30
Overread into Lead-In and Lead-Out : Yes
Fill up missing offset samples with silence : Yes
Delete leading and trailing silent blocks : No
Null samples used in CRC calculations : Yes
Used interface : Native Win32 interface for Win NT & 2000
Gap handling : Appended to previous track

Used output format : User Defined Encoder
Selected bitrate : 320 kBit/s
Quality : High
Add ID3 tag : No
Command line compressor : C:\Program Files\Exact Audio Copy\Flac\flac.exe
Additional command line options : -V -5 -T "artist=%a" -T "title=%t" -T "album=%g" -T "date=%y" -T "tracknumber=%n" -T "genre=%m" %s


TOC of the extracted CD

Track | Start | Length | Start sector | End sector
––––––––––––––––––––––––––––-
1 | 0:00.37 | 4:48.63 | 37 | 21699
2 | 4:49.25 | 7:15.55 | 21700 | 54379
3 | 12:05.05 | 4:49.60 | 54380 | 76114
4 | 16:54.65 | 6:15.05 | 76115 | 104244
5 | 23:09.70 | 5:31.27 | 104245 | 129096
6 | 28:41.22 | 7:18.08 | 129097 | 161954
7 | 35:59.30 | 6:28.20 | 161955 | 191074
8 | 42:27.50 | 4:53.05 | 191075 | 213054
9 | 47:20.55 | 4:51.55 | 213055 | 234934
10 | 52:12.35 | 5:02.45 | 234935 | 257629


Track 1

Filename D:\EACrips\01 - Gone With The Wind .wav

Pre-gap length 0:00:02.49

Peak level 89.0 %
Track quality 100.0 %
Test CRC 0C2C793E
Copy CRC 0C2C793E
Accurately ripped (confidence 4) [BABB9015]
Copy OK

Track 2

Filename D:\EACrips\02 - All The Things You Are .wav

Pre-gap length 0:00:01.65

Peak level 100.0 %
Track quality 100.0 %
Test CRC E963D0F9
Copy CRC E963D0F9
Accurately ripped (confidence 4) [DE15D8FF]
Copy OK

Track 3

Filename D:\EACrips\03 - Have You Met Miss Jones .wav

Pre-gap length 0:00:03.18

Peak level 74.4 %
Track quality 100.0 %
Test CRC F44F5791
Copy CRC F44F5791
Accurately ripped (confidence 4) [09B8467A]
Copy OK

Track 4

Filename D:\EACrips\04 - My One And Only Love .wav

Pre-gap length 0:00:02.98

Peak level 85.3 %
Track quality 100.0 %
Test CRC 4F7D2BFF
Copy CRC 4F7D2BFF
Accurately ripped (confidence 4) [169F1059]
Copy OK

Track 5

Filename D:\EACrips\05 - Night And Day .wav

Pre-gap length 0:00:03.05

Peak level 84.2 %
Track quality 100.0 %
Test CRC BF096680
Copy CRC BF096680
Accurately ripped (confidence 4) [F3C3F289]
Copy OK

Track 6

Filename D:\EACrips\06 - My Ideal .wav

Pre-gap length 0:00:03.05

Peak level 84.4 %
Track quality 100.0 %
Test CRC A5F1D0FE
Copy CRC A5F1D0FE
Accurately ripped (confidence 4) [BE3F3AC1]
Copy OK

Track 7

Filename D:\EACrips\07 - Where Or When .wav

Pre-gap length 0:00:03.22

Peak level 85.8 %
Track quality 99.9 %
Test CRC 481C7314
Copy CRC 2B78D517
Accurately ripped (confidence 4) [6C9D6361]
Copy OK

Track 8

Filename D:\EACrips\08 - Gone With The Wind [alternate take 1] .wav

Pre-gap length 0:00:03.22

Peak level 93.0 %
Track quality 99.5 %
Test CRC 732A72A6
Copy CRC 732A72A6
Accurately ripped (confidence 4) [632D3808]
Copy OK

Track 9

Filename D:\EACrips\09 - Gone With The Wind [alternate take 2] .wav

Pre-gap length 0:00:03.05

Peak level 87.5 %
Track quality 99.5 %
Test CRC 5A12892F
Copy CRC 5A12892F
Accurately ripped (confidence 3) [0AACF467]
Copy OK

Track 10

Filename D:\EACrips\10 - Have You Met Miss Jones [alternate take] .wav

Pre-gap length 0:00:03.22

Peak level 83.7 %
Track quality 100.0 %
Test CRC 6DD19141
Copy CRC 6DD19141
Accurately ripped (confidence 3) [033BD7B9]
Copy OK


All tracks accurately ripped

No errors occurred

End of status report

––––––––––––––––––––––––––––––

Exact Audio Copy V0.99 prebeta 5 from 4. May 2009

EAC extraction logfile from 2. August 2009, 21:24

Art Tatum / The Tatum Group Masterpieces

Used drive : PLEXTOR CD-R PREMIUM2 Adapter: 2 ID: 3

Read mode : Secure
Utilize accurate stream : Yes
Defeat audio cache : Yes
Make use of C2 pointers : No

Read offset correction : 30
Overread into Lead-In and Lead-Out : Yes
Fill up missing offset samples with silence : Yes
Delete leading and trailing silent blocks : No
Null samples used in CRC calculations : Yes
Used interface : Native Win32 interface for Win NT & 2000
Gap handling : Appended to previous track

Used output format : User Defined Encoder
Selected bitrate : 320 kBit/s
Quality : High
Add ID3 tag : No
Command line compressor : C:\Program Files\Exact Audio Copy\Flac\flac.exe
Additional command line options : -V -5 -T "artist=%a" -T "title=%t" -T "album=%g" -T "date=%y" -T "tracknumber=%n" -T "genre=%m" %s


TOC of the extracted CD

Track | Start | Length | Start sector | End sector
––––––––––––––––––––––––––––-
1 | 0:00.37 | 4:48.63 | 37 | 21699
2 | 4:49.25 | 7:15.55 | 21700 | 54379
3 | 12:05.05 | 4:49.60 | 54380 | 76114
4 | 16:54.65 | 6:15.05 | 76115 | 104244
5 | 23:09.70 | 5:31.27 | 104245 | 129096
6 | 28:41.22 | 7:18.08 | 129097 | 161954
7 | 35:59.30 | 6:28.20 | 161955 | 191074
8 | 42:27.50 | 4:53.05 | 191075 | 213054
9 | 47:20.55 | 4:51.55 | 213055 | 234934
10 | 52:12.35 | 5:02.45 | 234935 | 257629


Track 7

Filename D:\EACrips\07 - Where Or When .wav

Pre-gap length 0:00:03.22

Peak level 85.8 %
Track quality 100.0 %
Test CRC 2B78D517
Copy CRC 2B78D517
Accurately ripped (confidence 4) [6C9D6361]
Copy OK


All tracks accurately ripped

No errors occurred

End of status report

[CUETools log; Date: 21.04.2019 1:40:18; Version: 2.1.4]
Pregap length 00:00:37.
[CTDB TOCID: oWqlfrb1y8W9tEAEkRfFSLamoIM-] found.
Track | CTDB Status
1 | (15/15) Accurately ripped
2 | (15/15) Accurately ripped
3 | (15/15) Accurately ripped
4 | (15/15) Accurately ripped
5 | (15/15) Accurately ripped
6 | (14/15) Accurately ripped
7 | (15/15) Accurately ripped
8 | (15/15) Accurately ripped
9 | (15/15) Accurately ripped
10 | (14/15) Accurately ripped
[AccurateRip ID: 00160980-00b08af0-7a0d6b0a] found.
Track [ CRC | V2 ] Status
01 [babb9015|ec401466] (10+26/36) Accurately ripped
02 [de15d8ff|69c2b101] (10+27/37) Accurately ripped
03 [09b8467a|f5b6b01e] (10+27/37) Accurately ripped
04 [169f1059|31837677] (10+27/37) Accurately ripped
05 [f3c3f289|2f74f40a] (10+27/37) Accurately ripped
06 [be3f3ac1|a0d3c92e] (10+27/37) Accurately ripped
07 [6c9d6361|c707e8f8] (10+26/36) Accurately ripped
08 [632d3808|1042ceb1] (10+27/37) Accurately ripped
09 [0aacf467|6117cfc6] (09+25/34) Accurately ripped
10 [033bd7b9|2b9ccc18] (09+24/33) Accurately ripped

Track Peak [ CRC32 ] [W/O NULL] [ LOG ]
– 100,0 [C688CD6D] [2DBEFF70]
01 89,0 [0C2C793E] [180EFB74] CRC32
02 100,0 [E963D0F9] [4D4A58CF] CRC32
03 74,4 [F44F5791] [10DE591E] CRC32
04 85,3 [4F7D2BFF] [B577C328] CRC32
05 84,2 [BF096680] [4A2DBBA7] CRC32
06 84,4 [A5F1D0FE] [2CE6F39E] CRC32
07 85,8 [2B78D517] [29C8D8D8] CRC32
08 93,0 [732A72A6] [161CBECE] CRC32
09 87,5 [5A12892F] [3DFDE959] CRC32
10 83,7 [6DD19141] [96C7AF43] CRC32

Thanks to Alano89

See also:
Art Tatum - Solos (1940) [Reissue 1990]