Tags
Language
Tags

Arthur Fiedler and The Boston Pops - Bizet-Shchedrin: Carmen Ballet; Shostakovich: Hamlet; Glazunov: Carnaval Overture (1999)

Posted By: ArlegZ
Arthur Fiedler and The Boston Pops - Bizet-Shchedrin: Carmen Ballet; Shostakovich: Hamlet; Glazunov: Carnaval Overture (1999)

Arthur Fiedler and The Boston Pops - Bizet-Shchedrin: Carmen Ballet; Shostakovich: Hamlet, incidental music; Glazunov: Carnaval Overture (1999)
EAC | FLAC | Image (Cue & Log) ~ 354 Mb | Total time: 67:58 | Scans included
Classical | Label: RCA Red Seal | 09026-63308-2 | Recorded: 1968, 1969

Arthur Fiedler's recording of Shchedrin's Carmen Ballet is excellent in every way. The composer's imaginative rescoring of several sections of Bizet's opera for strings and percussion is a superb reorchestration exploiting a full range of percussion timbre that reveals an incredible array of views of the score that continually delight the listener. The Ballet, composed as a vehicle for his celebrated wife- prima ballerina of the Bolshoi Ballet, Maya Plisetskaya - is an extraordinary orchestration which invites the listener to explore new and very different colors with music originally scored for Bizet's classically constituted orchestra of the opera pit. While the disk also includes the Incidental Music to "Hamlet" by Shostakovich and Glazunov's Carnival Overture, it's the Shchedrin performance that makes the disk worth any price for the listener who values discovering new things in music well known in an earlier guise.

Performer:
Boston Pops Orchestra
Arthur Fiedler, conductor

Track List:
Georges Bizet / Rodion Shchedrin
Carmen Ballet
01. Introduction
02. Dance
03. First Intermezzo
04. Change of the Guard
05. Entrance of Carmen and Habanera
06. Scene
07. Second Intermezzo
08. Bolero
09. Toreador
10. Toreador and Carmen
11. Adagio
12. The Fortune Teller
13. Finale
Dmitri Shostakovich
Incidental Music to Hamlet
14. Introduction and Night Watch
15. Funeral March
16. Flourish and Dance Music
17. Hunting
18. Actor's Pantomime
19. Procession
20. Musical Pantomime
21. Feast
22. Ophelia's Song
23. Lullaby
24. Requiem
25. Tournament
26. March of Fortinbras
Alexander Glazunov
27. Carnaval Overture, Op. 45


Exact Audio Copy V1.5 from 20. February 2020

EAC extraction logfile from 19. April 2020, 14:41

Unknown Artist / Unknown Title

Used drive : ASUS DRW-24B1ST j Adapter: 1 ID: 0

Read mode : Secure
Utilize accurate stream : Yes
Defeat audio cache : Yes
Make use of C2 pointers : No

Read offset correction : 6
Overread into Lead-In and Lead-Out : No
Fill up missing offset samples with silence : Yes
Delete leading and trailing silent blocks : No
Null samples used in CRC calculations : Yes
Used interface : Native Win32 interface for Win NT & 2000

Used output format : User Defined Encoder
Selected bitrate : 896 kBit/s
Quality : High
Add ID3 tag : No
Command line compressor : C:\Program Files (x86)\Exact Audio Copy\FLAC\FLAC.EXE
Additional command line options : -6 -V -T "ARTIST=%artist%" -T "TITLE=%title%" -T "ALBUM=%albumtitle%" -T "DATE=%year%" -T "TRACKNUMBER=%tracknr%" -T "GENRE=%genre%" -T "COMMENT=%comment%" -T "BAND=%albuminterpret%" -T "ALBUMARTIST=%albuminterpret%" -T "COMPOSER=%composer%" %haslyrics%–tag-from-file=LYRICS="%lyricsfile%"%haslyrics% -T "DISCNUMBER=%cdnumber%" -T "TOTALDISCS=%totalcds%" -T "TOTALTRACKS=%numtracks%" %hascover%–picture="%coverfile%"%hascover% %source% -o %dest%


TOC of the extracted CD

Track | Start | Length | Start sector | End sector
––––––––––––––––––––––––––––-
1 | 0:00.00 | 1:14.35 | 0 | 5584
2 | 1:14.35 | 2:09.67 | 5585 | 15326
3 | 3:24.27 | 0:57.60 | 15327 | 19661
4 | 4:22.12 | 1:55.30 | 19662 | 28316
5 | 6:17.42 | 2:45.60 | 28317 | 40751
6 | 9:03.27 | 5:26.10 | 40752 | 65211
7 | 14:29.37 | 1:45.68 | 65212 | 73154
8 | 16:15.30 | 1:15.10 | 73155 | 78789
9 | 17:30.40 | 2:46.30 | 78790 | 91269
10 | 20:16.70 | 4:00.27 | 91270 | 109296
11 | 24:17.22 | 4:36.28 | 109297 | 130024
12 | 28:53.50 | 4:02.20 | 130025 | 148194
13 | 32:55.70 | 5:57.05 | 148195 | 174974
14 | 38:53.00 | 2:19.55 | 174975 | 185454
15 | 41:12.55 | 1:35.50 | 185455 | 192629
16 | 42:48.30 | 2:08.57 | 192630 | 202286
17 | 44:57.12 | 2:08.03 | 202287 | 211889
18 | 47:05.15 | 1:22.22 | 211890 | 218061
19 | 48:27.37 | 1:03.10 | 218062 | 222796
20 | 49:30.47 | 0:57.60 | 222797 | 227131
21 | 50:28.32 | 1:06.55 | 227132 | 232136
22 | 51:35.12 | 1:27.70 | 232137 | 238731
23 | 53:03.07 | 1:05.20 | 238732 | 243626
24 | 54:08.27 | 1:59.70 | 243627 | 252621
25 | 56:08.22 | 0:49.30 | 252622 | 256326
26 | 56:57.52 | 1:58.73 | 256327 | 265249
27 | 58:56.50 | 9:02.00 | 265250 | 305899


Range status and errors

Selected range

Filename M:\Ballet\Shchdedrin\Shchedrin carmen.wav

Peak level 98.8 %
Extraction speed 8.1 X
Range quality 100.0 %
Test CRC D06EF6D4
Copy CRC D06EF6D4
Copy OK

No errors occurred


AccurateRip summary

Track 1 accurately ripped (confidence 10) [9E3536C3] (AR v2)
Track 2 accurately ripped (confidence 10) [73067417] (AR v2)
Track 3 accurately ripped (confidence 10) [361F470D] (AR v2)
Track 4 accurately ripped (confidence 10) [F9432FB8] (AR v2)
Track 5 accurately ripped (confidence 10) [CF434EA4] (AR v2)
Track 6 accurately ripped (confidence 10) [B9DBD6FF] (AR v2)
Track 7 accurately ripped (confidence 10) [2F520736] (AR v2)
Track 8 accurately ripped (confidence 10) [AA2C407B] (AR v2)
Track 9 accurately ripped (confidence 9) [CBBA630A] (AR v2)
Track 10 accurately ripped (confidence 9) [885A9B6E] (AR v2)
Track 11 accurately ripped (confidence 9) [61E704A8] (AR v2)
Track 12 accurately ripped (confidence 9) [F5D15B27] (AR v2)
Track 13 accurately ripped (confidence 10) [10B31372] (AR v2)
Track 14 accurately ripped (confidence 10) [26B86186] (AR v2)
Track 15 accurately ripped (confidence 10) [6B09AE4D] (AR v2)
Track 16 accurately ripped (confidence 10) [1A12887C] (AR v2)
Track 17 accurately ripped (confidence 10) [A4AF8859] (AR v2)
Track 18 accurately ripped (confidence 10) [C6AB8E5D] (AR v2)
Track 19 accurately ripped (confidence 10) [BE870BDA] (AR v2)
Track 20 accurately ripped (confidence 10) [7240A70C] (AR v2)
Track 21 accurately ripped (confidence 10) [1767D7FB] (AR v2)
Track 22 accurately ripped (confidence 10) [B3A0E72D] (AR v2)
Track 23 accurately ripped (confidence 10) [13771539] (AR v2)
Track 24 accurately ripped (confidence 9) [452831AB] (AR v2)
Track 25 accurately ripped (confidence 9) [9AE838FB] (AR v2)
Track 26 accurately ripped (confidence 9) [C31812B8] (AR v2)
Track 27 accurately ripped (confidence 9) [21494C3F] (AR v2)

All tracks accurately ripped

End of status report

–– CUETools DB Plugin V2.1.6

[CTDB TOCID: F8UtrZctY2V9oyeJuVJEx7_aQfY-] found
Submit result: F8UtrZctY2V9oyeJuVJEx7_aQfY- has been confirmed
Track | CTDB Status
1 | (120/131) Accurately ripped
2 | (120/131) Accurately ripped
3 | (120/131) Accurately ripped
4 | (120/131) Accurately ripped
5 | (120/131) Accurately ripped
6 | (120/131) Accurately ripped
7 | (120/131) Accurately ripped
8 | (120/131) Accurately ripped
9 | (120/131) Accurately ripped
10 | (120/131) Accurately ripped
11 | (120/131) Accurately ripped
12 | (120/131) Accurately ripped
13 | (120/131) Accurately ripped
14 | (120/131) Accurately ripped
15 | (120/131) Accurately ripped
16 | (120/131) Accurately ripped
17 | (120/131) Accurately ripped
18 | (120/131) Accurately ripped
19 | (120/131) Accurately ripped
20 | (120/131) Accurately ripped
21 | (120/131) Accurately ripped
22 | (119/131) Accurately ripped
23 | (119/131) Accurately ripped
24 | (119/131) Accurately ripped
25 | (119/131) Accurately ripped
26 | (119/131) Accurately ripped
27 | (119/131) Accurately ripped


==== Log checksum 5BEF6CDF499DD429AB4E9CA4EC9694EAF8BF2302A129736F3B6844A99623818C ====

Arthur Fiedler and The Boston Pops - Bizet-Shchedrin: Carmen Ballet; Shostakovich: Hamlet; Glazunov: Carnaval Overture (1999)

Thanks to the original releaser