Tags
Language
Tags

Arthur Grumiaux, Colin Davis, London Symphony Orchestra - Mozart: The Violin Concertos (2001)

Posted By: ArlegZ
Arthur Grumiaux, Colin Davis, London Symphony Orchestra - Mozart: The Violin Concertos (2001)

Arthur Grumiaux, Colin Davis, London Symphony Orchestra - Mozart: The Violin Concertos (2001)
EAC | FLAC | Image (Cue & Log) ~ 696 Mb | Total time: 153:26 | Scans included
Classical | Label: Philips | 464 722-2 | Recorded: 1956, 2961, 1962, 1964

At the ripe old age of 19 Mozart wrote five violin concertos, and they represent his coming of age as a composer of orchestral music. From here on, it's basically one masterpiece after another. Though not difficult works, technically speaking, they partake in full measure of Mozart's uniquely sensual brand of melody. That means that successful performances must know how to spin out a singing musical line, while at the same time making the most of the rare opportunities for soloistic display. Taste and musicianship are more important qualities than virtuosity, and that makes these pieces ideal vehicles for Arthur Grumiaux's aristocratic temperament and technical polish.
–David Hurwitz

Performer:
Arthur Grumiaux, violin
Clara Haskil, piano (KV 454 & 526)
London Symphony Orchestra
Colin Davis, conductor

Track List:
CD1:
Violin Concerto No. 1 in B flat major, KV 207
01. I. Allegro moderato
02. II. Adagio
03. III. Presto
Violin Concerto No. 2 in D major, KV 211
04. I. Allegro moderato
05. II. Andante
06. III. Rondeau: Allegro
Sonata for Violin & Piano No. 32 in B flat major, KV 454
07. I. Largo - Allegro
08. II. Andante
09. III. Allegretto
Sonata for Violin & Piano No. 35 in A major, KV 526
10. I. Allegro molto
11. II. Andante
12. III. Presto
CD2:
Violin Concerto No. 3 in G major, KV 216
01. I. Allegro
02. II. Adagio
03. III. Rondeau: Allegro
Violin Concerto No. 4 in D major, KV 218
04. I. Allegro
05. II. Andante cantabile
06. III. Rondeau: Andante grazioso - Allegro ma non troppo
Violin Concerto No. 5 in A major, KV 219
07. I. Allegro aperto
08. II. Adagio
09. III. Rondeau: Tempo di menuetto


Exact Audio Copy V1.3 from 2. September 2016

EAC extraction logfile from 16. June 2020, 15:11

Arthur Grumiaux / Mozart: The Violin Concertos

Used drive : PLEXTOR DVDR PX-891SA Adapter: 1 ID: 1

Read mode : Secure
Utilize accurate stream : Yes
Defeat audio cache : No
Make use of C2 pointers : No

Combined read/write offset correction : 0
Overread into Lead-In and Lead-Out : No
Fill up missing offset samples with silence : Yes
Delete leading and trailing silent blocks : No
Null samples used in CRC calculations : Yes
Used interface : Native Win32 interface for Win NT & 2000

Used output format : Internal WAV Routines
Sample format : 44.100 Hz; 16 Bit; Stereo


TOC of the extracted CD

Track | Start | Length | Start sector | End sector
––––––––––––––––––––––––––––-
1 | 0:00.00 | 6:36.00 | 0 | 29699
2 | 6:36.00 | 6:56.50 | 29700 | 60949
3 | 13:32.50 | 5:17.25 | 60950 | 84749
4 | 18:50.00 | 8:16.00 | 84750 | 121949
5 | 27:06.00 | 6:32.00 | 121950 | 151349
6 | 33:38.00 | 4:03.00 | 151350 | 169574
7 | 37:41.00 | 7:12.00 | 169575 | 201974
8 | 44:53.00 | 8:05.00 | 201975 | 238349
9 | 52:58.00 | 6:40.00 | 238350 | 268349
10 | 59:38.00 | 6:22.00 | 268350 | 296999
11 | 66:00.00 | 8:17.00 | 297000 | 334274
12 | 74:17.00 | 6:51.00 | 334275 | 365099


Range status and errors

Selected range

Filename D:\Andrea\DOWNLOADS_AUDIO\Arthur Grumiaux - Mozart- The Violin Concertos.wav

Peak level 99.9 %
Extraction speed 6.0 X
Range quality 100.0 %
Test CRC 0D7D8101
Copy CRC 0D7D8101
Copy OK

No errors occurred

End of status report

–– CUETools DB Plugin V2.1.6

[CTDB TOCID: n.fCkSBU6WnftBcPaNQP_v0Qsg4-] found
Submit result: n.fCkSBU6WnftBcPaNQP_v0Qsg4- has been confirmed
Track | CTDB Status
1 | (112/112) Accurately ripped
2 | (111/112) Accurately ripped
3 | (112/112) Accurately ripped
4 | (112/112) Accurately ripped
5 | (112/112) Accurately ripped
6 | (112/112) Accurately ripped
7 | (112/112) Accurately ripped
8 | (112/112) Accurately ripped
9 | (111/112) Accurately ripped
10 | (112/112) Accurately ripped
11 | (112/112) Accurately ripped
12 | (112/112) Accurately ripped


Exact Audio Copy V1.3 from 2. September 2016

EAC extraction logfile from 16. June 2020, 16:42

Arthur Grumiaux / Mozart: The Violin Concertos (Disc 2)

Used drive : PLEXTOR DVDR PX-891SA Adapter: 1 ID: 1

Read mode : Secure
Utilize accurate stream : Yes
Defeat audio cache : No
Make use of C2 pointers : No

Combined read/write offset correction : 0
Overread into Lead-In and Lead-Out : No
Fill up missing offset samples with silence : Yes
Delete leading and trailing silent blocks : No
Null samples used in CRC calculations : Yes
Used interface : Native Win32 interface for Win NT & 2000

Used output format : Internal WAV Routines
Sample format : 44.100 Hz; 16 Bit; Stereo


TOC of the extracted CD

Track | Start | Length | Start sector | End sector
––––––––––––––––––––––––––––-
1 | 0:00.00 | 8:42.25 | 0 | 39174
2 | 8:42.25 | 7:37.35 | 39175 | 73484
3 | 16:19.60 | 5:40.11 | 73485 | 98995
4 | 21:59.71 | 9:00.24 | 98996 | 139519
5 | 31:00.20 | 6:54.13 | 139520 | 170582
6 | 37:54.33 | 7:02.07 | 170583 | 202239
7 | 44:56.40 | 9:17.31 | 202240 | 244045
8 | 54:13.71 | 9:41.49 | 244046 | 287669
9 | 63:55.45 | 8:09.30 | 287670 | 324374


Range status and errors

Selected range

Filename D:\Andrea\DOWNLOADS_AUDIO\Arthur Grumiaux - Mozart- The Violin Concertos (Disc 2).wav

Peak level 93.7 %
Extraction speed 10.9 X
Range quality 100.0 %
Test CRC 14F8BE7B
Copy CRC 14F8BE7B
Copy OK

No errors occurred

End of status report

–– CUETools DB Plugin V2.1.6

[CTDB TOCID: gTNS25W.ZkuZ44Zr0Bx9XHcFrIo-] found
Submit result: gTNS25W.ZkuZ44Zr0Bx9XHcFrIo- has been confirmed
Track | CTDB Status
1 | (110/111) Accurately ripped
2 | (111/111) Accurately ripped
3 | (111/111) Accurately ripped
4 | (110/111) Accurately ripped
5 | (111/111) Accurately ripped
6 | (111/111) Accurately ripped
7 | (111/111) Accurately ripped
8 | (111/111) Accurately ripped
9 | (109/111) Accurately ripped

Arthur Grumiaux, Colin Davis, London Symphony Orchestra - Mozart: The Violin Concertos (2001)

Thanks to the original releaser