Subcategories

Arturo Toscanini - Enciclopedia della Musica: I Grandi Direttori - 2 (2007)

Posted By: Andi_Deris
Arturo Toscanini - Enciclopedia della Musica: I Grandi Direttori - 2 (2007)

Enciclopedia della Musica: I Grandi Direttori - 2 [Arturo Toscanini] (2007)
EAC Rip | FLAC: Tracks+Cue+Log | 623 Mb | Scans | Time: 01:09:57 + 01:19:10
Genre: Classical | Label: Sony BMG Music (Italy)/Il Sole 24 ORE | Cat.: 771826608367 70004

Arturo Toscanini (March 25, 1867 – January 16, 1957) was an Italian conductor. One of the most acclaimed musicians of the late 19th and 20th century, he was renowned for his brilliant intensity, his restless perfectionism, his phenomenal ear for orchestral detail and sonority, and his photographic memory. As music director of the NBC Symphony Orchestra he became a household name through his radio and television broadcasts and many recordings of the operatic and symphonic repertoire. He is widely considered to have been one of the greatest conductors of the 20th century.

Arturo Toscanini - Enciclopedia della Musica: I Grandi Direttori - 2 (2007)


CD 1: Ludwig Van Beethoven

NBC Symphony Orchestra

Sinfonia n.1, Op. 21


[08:21] 01. Adagio Molto: Allegro con brio
[06:22] 02. Andante cantabile con moto
[03:23] 03. Menuetto: Allegro molto e vivace
[05:38] 04. Adagio: Allegro molto e vivace

Sinfonia N.3, Op. 55 "Erotica'

[14:09] 01. Allegro con brio
[15:24] 02. Marcia funebre: Adagio assai
[05:25] 03. Scherzo: Allegro Vivace; Trio
[11:12] 04. Finale: Allegro molto; Poco andante; Presto

Exact Audio Copy V0.99 prebeta 5 from 4. May 2009

EAC extraction logfile from 8. December 2010, 21:13

Arturo Toscanini / Beethoven Sinfonie n 1 op.21 e n 3 op.55

Used drive : _NEC DVD_RW ND-4551A Adapter: 2 ID: 2

Read mode : Secure
Utilize accurate stream : Yes
Defeat audio cache : Yes
Make use of C2 pointers : No

Read offset correction : 48
Overread into Lead-In and Lead-Out : No
Fill up missing offset samples with silence : Yes
Delete leading and trailing silent blocks : No
Null samples used in CRC calculations : Yes
Used interface : Native Win32 interface for Win NT & 2000
Gap handling : Appended to previous track

Used output format : User Defined Encoder
Selected bitrate : 768 kBit/s
Quality : High
Add ID3 tag : No
Command line compressor : C:\Programmi\Exact Audio Copy\FLAC\FLAC.EXE
Additional command line options : -8 -V -T "artist=%a" -T "title=%t" -T "album=%g" -T "date=%y" -T "tracknumber=%n" -T "genre=%m" %s


TOC of the extracted CD

Track | Start | Length | Start sector | End sector
––––––––––––––––––––––––––––-
1 | 0:00.00 | 8:21.30 | 0 | 37604
2 | 8:21.30 | 6:22.30 | 37605 | 66284
3 | 14:43.60 | 3:23.62 | 66285 | 81571
4 | 18:07.47 | 5:38.18 | 81572 | 106939
5 | 23:45.65 | 14:09.62 | 106940 | 170676
6 | 37:55.52 | 15:24.15 | 170677 | 239991
7 | 53:19.67 | 5:25.05 | 239992 | 264371
8 | 58:44.72 | 11:12.43 | 264372 | 314814


Track 1

Filename C:\Documents and Settings\Administrator\Documenti\01 - Beethoven - Sinfonia n.1 op.21 , Adagio Molto - Allegro con brio.wav

Pre-gap length 0:00:02.00

Peak level 99.9 %
Track quality 99.9 %
Test CRC 49338C75
Copy CRC 49338C75
Track not present in AccurateRip database
Copy OK

Track 2

Filename C:\Documents and Settings\Administrator\Documenti\02 - Beethoven - Sinfonia n.1 op.21 , Adagio - Cantabile con moto.wav

Pre-gap length 0:00:00.11

Peak level 99.9 %
Track quality 100.0 %
Test CRC F0BD9DE5
Copy CRC F0BD9DE5
Track not present in AccurateRip database
Copy OK

Track 3

Filename C:\Documents and Settings\Administrator\Documenti\03 - Beethoven - Sinfonia n.1 op.21 , Menuette - Allegro molto e vivace.wav

Peak level 78.5 %
Track quality 100.0 %
Test CRC 8802E71A
Copy CRC 8802E71A
Track not present in AccurateRip database
Copy OK

Track 4

Filename C:\Documents and Settings\Administrator\Documenti\04 - Beethoven - Sinfonia n.1 op.21 , Adagio - Allegro molto e vivace.wav

Peak level 99.9 %
Track quality 100.0 %
Test CRC 1AAE4B37
Copy CRC 1AAE4B37
Track not present in AccurateRip database
Copy OK

Track 5

Filename C:\Documents and Settings\Administrator\Documenti\05 - Beethoven - Sinfonia n.3 op.33 , Allegro con brio.wav

Pre-gap length 0:00:02.42

Peak level 99.9 %
Track quality 100.0 %
Test CRC A033C851
Copy CRC A033C851
Track not present in AccurateRip database
Copy OK

Track 6

Filename C:\Documents and Settings\Administrator\Documenti\06 - Beethoven - Sinfonia n.3 op.33 , Marcia funebre - adagio assai.wav

Peak level 99.9 %
Track quality 100.0 %
Test CRC C8C112E3
Copy CRC C8C112E3
Track not present in AccurateRip database
Copy OK

Track 7

Filename C:\Documents and Settings\Administrator\Documenti\07 - Beethoven - Sinfonia n.3 op.33 , Scherzo - Allegro Vivace; Trio.wav

Peak level 99.9 %
Track quality 99.9 %
Test CRC BD102BEC
Copy CRC BD102BEC
Track not present in AccurateRip database
Copy OK

Track 8

Filename C:\Documents and Settings\Administrator\Documenti\08 - Beethoven - Sinfonia n.3 op.33 , Finale - Allegro molto; Poco andante; Presto.wav

Peak level 99.9 %
Track quality 100.0 %
Test CRC 8DCBD418
Copy CRC 8DCBD418
Track not present in AccurateRip database
Copy OK


None of the tracks are present in the AccurateRip database

No errors occurred

End of status report


CD 2: Ludwig Van Beethoven

NBC Symphony Orchestra

Sinfonia n.6 Op. 68 'Pastorale'


[11:51] 01. Risveglio di lieti sentimenti all'arrivo in campagna; Allegro ma non troppo
[11:34] 02. Scena presso il ruscello; Andante molto mosso
[05:00] 03. Gioiosa riunione di contadini; Allegro
[03:34] 04. Temporale, Tempesta; Allegro
[08:43] 05. Canto pastorale; gioia dopo la tempesta; Allegretto

Concerto per violino Op. 61

[21:17] 06. Allegro, ma non troppo
[08:42] 07. Larghetto
[08:27] 08. Rondò: Allegro

Exact Audio Copy V0.99 prebeta 5 from 4. May 2009

EAC extraction logfile from 8. December 2010, 20:32

Arturo Toscanini / Beethoven - Sinfonia n.6 - Concerto per Violino Op.61

Used drive : _NEC DVD_RW ND-4551A Adapter: 2 ID: 2

Read mode : Secure
Utilize accurate stream : Yes
Defeat audio cache : Yes
Make use of C2 pointers : No

Read offset correction : 48
Overread into Lead-In and Lead-Out : No
Fill up missing offset samples with silence : Yes
Delete leading and trailing silent blocks : No
Null samples used in CRC calculations : Yes
Used interface : Native Win32 interface for Win NT & 2000
Gap handling : Appended to previous track

Used output format : User Defined Encoder
Selected bitrate : 768 kBit/s
Quality : High
Add ID3 tag : No
Command line compressor : C:\Programmi\Exact Audio Copy\FLAC\FLAC.EXE
Additional command line options : -8 -V -T "artist=%a" -T "title=%t" -T "album=%g" -T "date=%y" -T "tracknumber=%n" -T "genre=%m" %s


TOC of the extracted CD

Track | Start | Length | Start sector | End sector
––––––––––––––––––––––––––––-
1 | 0:00.00 | 11:51.27 | 0 | 53351
2 | 11:51.27 | 11:34.03 | 53352 | 105404
3 | 23:25.30 | 5:00.57 | 105405 | 127961
4 | 28:26.12 | 3:34.48 | 127962 | 144059
5 | 32:00.60 | 8:45.10 | 144060 | 183444
6 | 40:45.70 | 21:17.37 | 183445 | 279256
7 | 62:03.32 | 8:42.23 | 279257 | 318429
8 | 70:45.55 | 8:27.32 | 318430 | 356486


Track 1

Filename C:\Documents and Settings\Administrator\Documenti\01 - Sinfonia n.6 - Allegro ma non troppo.wav

Pre-gap length 0:00:02.00

Peak level 99.9 %
Track quality 100.0 %
Test CRC 29C10815
Copy CRC 29C10815
Track not present in AccurateRip database
Copy OK

Track 2

Filename C:\Documents and Settings\Administrator\Documenti\02 - Sinfonia n.6 - Andante molto mosso.wav

Pre-gap length 0:00:00.13

Peak level 62.7 %
Track quality 100.0 %
Test CRC 9E243967
Copy CRC 9E243967
Track not present in AccurateRip database
Copy OK

Track 3

Filename C:\Documents and Settings\Administrator\Documenti\03 - Sinfonia n.6 - Allegro.wav

Pre-gap length 0:00:00.01

Peak level 89.3 %
Track quality 100.0 %
Test CRC 2AA0F319
Copy CRC 2AA0F319
Track not present in AccurateRip database
Copy OK

Track 4

Filename C:\Documents and Settings\Administrator\Documenti\04 - Sinfonia n.6 - Allegro.wav

Peak level 99.9 %
Track quality 100.0 %
Test CRC EB126F11
Copy CRC EB126F11
Track not present in AccurateRip database
Copy OK

Track 5

Filename C:\Documents and Settings\Administrator\Documenti\05 - Sinfonia n.6 - Allegretto.wav

Peak level 99.9 %
Track quality 100.0 %
Test CRC 8D2ED9D4
Copy CRC 8D2ED9D4
Track not present in AccurateRip database
Copy OK

Track 6

Filename C:\Documents and Settings\Administrator\Documenti\06 - Concerto per Violino Op.61 - Allegro ma non troppo.wav

Pre-gap length 0:00:02.04

Peak level 99.9 %
Track quality 100.0 %
Test CRC A7E543AA
Copy CRC A7E543AA
Track not present in AccurateRip database
Copy OK

Track 7

Filename C:\Documents and Settings\Administrator\Documenti\07 - Concerto per Violino Op.61 - Larghetto.wav

Peak level 79.8 %
Track quality 100.0 %
Test CRC 0A77D810
Copy CRC 0A77D810
Track not present in AccurateRip database
Copy OK

Track 8

Filename C:\Documents and Settings\Administrator\Documenti\08 - Concerto per Violino Op.61 - Rondò - Allegro.wav

Pre-gap length 0:00:00.20

Peak level 82.2 %
Track quality 99.9 %
Test CRC BB54829E
Copy CRC BB54829E
Track not present in AccurateRip database
Copy OK


None of the tracks are present in the AccurateRip database

No errors occurred

End of status report


Many thanks to uploader: Cer8

See also:
Enciclopedia della Musica 2007 Herbert von Karajan - I Grandi Direttori
Enciclopedia della Musica 2007 Riccardo Muti - I Grandi Direttori