Subcategories
Tags
Language
Tags

Atipico Trio - Gone with the Winds (1997)

Posted By: v3122
Atipico Trio - Gone with the Winds (1997)

Atipico Trio - Gone with the Winds (1997)
EAC | Flac(Image) + Cue + Log & MP3 CBR 320Kbps
Splasc(H) Records, CDH 496.2 | ~ 354 or 171 Mb | Artwork(jpg) -> 23 Mb
Avant-Garde Jazz

The Atipico Trio's Gone with the Winds could also be called "Three Guys Passing Wind" or "Middle-Aged Farts at Play." No disrespect meant; in fact, quite the opposite. The clarinet, saxophone, and voice trio (each member does everything, sometimes at once) is comprised of Carlo Actis Dato, Sandro Cerino, and Stefano Corradi, sly dogs all. They would have you believe by their album cover – and the fact that they dedicate their works to aunts, pharmacists, dogs, etc. – that they are just three yobs blowing the hell out of their instruments and having a ball while doing it. Only the latter is true. From the opening absurdist quote from Gershwin's "Rhapsody in Blue" to a series of growls, howls, and tautly blended harmonic interplay between alto, contrabass, and bass clarinets, the charade is over. From tightly woven rhythmic melodies that evoke everything from American blues to Transylvanian boogies (nah, polkas actually) to Yiddish klezmer and every movement in jazz history, Atipico Trio is a fakebook unto itself. One of the more stunning cuts is "Affunk," where Tuvan throat singing gives way to iconoclastic jazz singing to deep baritone sax and clarinet funky-chicken squawk. Solos are taken in tandem by shifting rhythm from one register of the baritone to the others. On "Café Coast," French folk songs, Italian café songs, and Brazilian time signatures meet in a breezy, sweet, lazy melody that offers ample room for the restrained solos that have to evoke all three musics in their breaks. Somewhere Dato slips in quotes from an Otis Redding song and the other two begin to bar-walk the horns with a tarantella and slip into a howling wind before taking it out with a quote from "Fly Me to the Moon"! And that's how it is with this disc, one surprise after another, totally inspired, only partially insane, and thoroughly enjoyable from start to finish. Give me this over "serious" skronk improv any day of the week. Awesome.

by Thom Jurek, allmusic
Atipico Trio - Gone with the Winds (1997)

Atipico Trio - Gone with the Winds (1997):

Atipico Trio - Gone with the Winds (1997)

Tracklist:

01. We're Back (Actis Dato-Cerino-Corradi) - 0:39
02. Agdz (Actis Dato) - 7:38
03. Affunk (Corradi) - 6:43
04. Oh, Musica Divina! (Actis Dato) - 4:09
05. Una Rosa ad Haiti (Cerino) - 7:15
06. Neighbours' Favourite Song (Cerino) - 3:56
07. Carribean Murder (Actis Dato) - 4:16
08. Intervallo (Actis Dato) - 1:21
09. Atipico Igor (Corradi) - 7:12
10. Rumba Rapida (Actis Dato) - 5:58
11. Cape Coast (Actis Dato) - 6:34
12. Grey Christmas (Actis Dato) - 5:48
13. Dududu' x 3 (Actis Dato) - 5:01
14. Il Pigiama x n (Cerino) - 4:50
15. The Audition (Actis Dato-Cerino-Corradi) - 0:51

Carlo Actis Dato - bass clarinet, tenor saxophone, baritone saxophone, voice & vocal, strap, mouthpiece cup
Sandro Cerino - flute, bass flute, clarinet, bass clarinet, contrabass clarinet, alto saxophone, soprano saxophone, voice & vocal
Stefano Corradi - clarinet, bass clarinet, contrabass clarinet, tenor saxophone, voice & vocal


Exact Audio Copy V1.3 from 2. September 2016

EAC extraction logfile from 23. September 2019, 17:17

Atipico Trio / Gone With The Wind

Used drive : HL-DT-STDVDRAM GH24NSD1 Adapter: 1 ID: 3

Read mode : Secure
Utilize accurate stream : Yes
Defeat audio cache : Yes
Make use of C2 pointers : No

Read offset correction : 6
Overread into Lead-In and Lead-Out : No
Fill up missing offset samples with silence : Yes
Delete leading and trailing silent blocks : No
Null samples used in CRC calculations : Yes
Used interface : Native Win32 interface for Win NT & 2000
Gap handling : Appended to previous track

Used output format : User Defined Encoder
Selected bitrate : 768 kBit/s
Quality : High
Add ID3 tag : No
Command line compressor : C:\Program Files (x86)\FLAC\flac.exe
Additional command line options : -8 -V -T "ARTIST=%artist%" -T "TITLE=%title%" -T "ALBUM=%albumtitle%" -T "DATE=%year%" -T "TRACKNUMBER=%tracknr%" -T "TOTALTRACKS=%numtracks%" -T "GENRE=%genre%" -T "ALBUMARTIST=%albumartist%" -T "ALBUM ARTIST=%albumartist%" -T "COMMENT=EAC Secure Mode, Test & Copy, AccurateRip, FLAC -8" %source%


TOC of the extracted CD

Track | Start | Length | Start sector | End sector
––––––––––––––––––––––––––––-
1 | 0:00.00 | 0:39.10 | 0 | 2934
2 | 0:39.10 | 7:37.70 | 2935 | 37279
3 | 8:17.05 | 6:43.20 | 37280 | 67524
4 | 15:00.25 | 4:09.07 | 67525 | 86206
5 | 19:09.32 | 7:14.65 | 86207 | 118821
6 | 26:24.22 | 3:55.55 | 118822 | 136501
7 | 30:20.02 | 4:15.63 | 136502 | 155689
8 | 34:35.65 | 1:21.10 | 155690 | 161774
9 | 35:57.00 | 7:12.34 | 161775 | 194208
10 | 43:09.34 | 5:57.71 | 194209 | 221054
11 | 49:07.30 | 6:33.45 | 221055 | 250574
12 | 55:41.00 | 5:48.07 | 250575 | 276681
13 | 61:29.07 | 5:01.28 | 276682 | 299284
14 | 66:30.35 | 4:49.45 | 299285 | 321004
15 | 71:20.05 | 0:51.02 | 321005 | 324831


Track 1

Filename H:\! UPLOADS\Atipico Trio - Gone with the Winds (1997) [FLAC] {Splasch}\01 We're Back.wav

Pre-gap length 0:00:02.00

Peak level 42.5 %
Extraction speed 2.7 X
Track quality 100.0 %
Test CRC 2454BC93
Copy CRC 2454BC93
Accurately ripped (confidence 3) [D2E7714D] (AR v2)
Copy OK

Track 2

Filename H:\! UPLOADS\Atipico Trio - Gone with the Winds (1997) [FLAC] {Splasch}\02 Agdz.wav

Peak level 96.7 %
Extraction speed 5.3 X
Track quality 100.0 %
Test CRC 856718FC
Copy CRC 856718FC
Accurately ripped (confidence 3) [521DA830] (AR v2)
Copy OK

Track 3

Filename H:\! UPLOADS\Atipico Trio - Gone with the Winds (1997) [FLAC] {Splasch}\03 Affunk.wav

Peak level 98.4 %
Extraction speed 6.1 X
Track quality 100.0 %
Test CRC F07DB981
Copy CRC F07DB981
Accurately ripped (confidence 3) [C1E045C2] (AR v2)
Copy OK

Track 4

Filename H:\! UPLOADS\Atipico Trio - Gone with the Winds (1997) [FLAC] {Splasch}\04 Oh, Musica Divina!.wav

Peak level 80.4 %
Extraction speed 6.2 X
Track quality 100.0 %
Test CRC BFE69591
Copy CRC BFE69591
Accurately ripped (confidence 3) [A85C6C78] (AR v2)
Copy OK

Track 5

Filename H:\! UPLOADS\Atipico Trio - Gone with the Winds (1997) [FLAC] {Splasch}\05 Una Rosa Ad Haiti.wav

Peak level 97.3 %
Extraction speed 7.1 X
Track quality 100.0 %
Test CRC 5518E3AE
Copy CRC 5518E3AE
Accurately ripped (confidence 3) [A9E8B500] (AR v2)
Copy OK

Track 6

Filename H:\! UPLOADS\Atipico Trio - Gone with the Winds (1997) [FLAC] {Splasch}\06 Neighbours' Favourite Song.wav

Peak level 57.1 %
Extraction speed 5.9 X
Track quality 99.9 %
Test CRC E32D1DA6
Copy CRC E32D1DA6
Accurately ripped (confidence 3) [37838CA0] (AR v2)
Copy OK

Track 7

Filename H:\! UPLOADS\Atipico Trio - Gone with the Winds (1997) [FLAC] {Splasch}\07 Carribean Murder.wav

Peak level 39.8 %
Extraction speed 7.4 X
Track quality 100.0 %
Test CRC CFE33EA0
Copy CRC CFE33EA0
Accurately ripped (confidence 3) [5E5A0D14] (AR v2)
Copy OK

Track 8

Filename H:\! UPLOADS\Atipico Trio - Gone with the Winds (1997) [FLAC] {Splasch}\08 Intervallo.wav

Peak level 59.7 %
Extraction speed 5.9 X
Track quality 100.0 %
Test CRC 78E2FF15
Copy CRC 78E2FF15
Accurately ripped (confidence 3) [595793FC] (AR v2)
Copy OK

Track 9

Filename H:\! UPLOADS\Atipico Trio - Gone with the Winds (1997) [FLAC] {Splasch}\09 Atipico Igor.wav

Peak level 72.4 %
Extraction speed 8.3 X
Track quality 100.0 %
Test CRC 8F617FFB
Copy CRC 8F617FFB
Accurately ripped (confidence 3) [357C6EC4] (AR v2)
Copy OK

Track 10

Filename H:\! UPLOADS\Atipico Trio - Gone with the Winds (1997) [FLAC] {Splasch}\10 Rumba Rapida.wav

Peak level 92.6 %
Extraction speed 8.5 X
Track quality 100.0 %
Test CRC 296E253B
Copy CRC 296E253B
Accurately ripped (confidence 3) [FDC67C42] (AR v2)
Copy OK

Track 11

Filename H:\! UPLOADS\Atipico Trio - Gone with the Winds (1997) [FLAC] {Splasch}\11 Cape Coast.wav

Peak level 96.2 %
Extraction speed 9.0 X
Track quality 100.0 %
Test CRC 23DB7505
Copy CRC 23DB7505
Accurately ripped (confidence 3) [9C599D92] (AR v2)
Copy OK

Track 12

Filename H:\! UPLOADS\Atipico Trio - Gone with the Winds (1997) [FLAC] {Splasch}\12 Grey Christmas.wav

Peak level 67.2 %
Extraction speed 9.3 X
Track quality 100.0 %
Test CRC D4097F3E
Copy CRC D4097F3E
Accurately ripped (confidence 3) [FF7AD348] (AR v2)
Copy OK

Track 13

Filename H:\! UPLOADS\Atipico Trio - Gone with the Winds (1997) [FLAC] {Splasch}\13 Dududu' X 3.wav

Peak level 99.9 %
Extraction speed 9.4 X
Track quality 100.0 %
Test CRC B1E1CF34
Copy CRC B1E1CF34
Accurately ripped (confidence 3) [CF9F6C2F] (AR v2)
Copy OK

Track 14

Filename H:\! UPLOADS\Atipico Trio - Gone with the Winds (1997) [FLAC] {Splasch}\14 Il Pigiama X N.wav

Peak level 81.2 %
Extraction speed 9.7 X
Track quality 100.0 %
Test CRC FE227CE9
Copy CRC FE227CE9
Accurately ripped (confidence 3) [C7347103] (AR v2)
Copy OK

Track 15

Filename H:\! UPLOADS\Atipico Trio - Gone with the Winds (1997) [FLAC] {Splasch}\15 The Audition.wav

Peak level 73.6 %
Extraction speed 6.2 X
Track quality 100.0 %
Test CRC E303A481
Copy CRC E303A481
Accurately ripped (confidence 3) [6B054ABF] (AR v2)
Copy OK


All tracks accurately ripped

No errors occurred

End of status report

–– CUETools DB Plugin V2.1.6

[CTDB TOCID: hVK8cO_nQpaNZVMYH0qAi3MU3pY-] found
Submit result: hVK8cO_nQpaNZVMYH0qAi3MU3pY- has been confirmed
Track | CTDB Status
1 | (3/3) Accurately ripped
2 | (3/3) Accurately ripped
3 | (3/3) Accurately ripped
4 | (3/3) Accurately ripped
5 | (3/3) Accurately ripped
6 | (3/3) Accurately ripped
7 | (3/3) Accurately ripped
8 | (3/3) Accurately ripped
9 | (3/3) Accurately ripped
10 | (3/3) Accurately ripped
11 | (3/3) Accurately ripped
12 | (3/3) Accurately ripped
13 | (3/3) Accurately ripped
14 | (3/3) Accurately ripped
15 | (3/3) Accurately ripped


==== Log checksum 5B9E658C4379CE3373BFF25414C7A238385B3F36BCA99337D6F8A84B37B5DE3D ====


[CUETools log; Date: 26.11.2019 13:52:42; Version: 2.1.4]
[AccurateRip ID: 002880ab-01cf6371-e210eb0f] found.
Track [ CRC | V2 ] Status
01 [e045bd11|d2e7714d] (0+3/3) Accurately ripped
02 [6ef63888|521da830] (0+3/3) Accurately ripped
03 [fcb32b81|c1e045c2] (0+3/3) Accurately ripped
04 [24aa26ec|a85c6c78] (0+3/3) Accurately ripped
05 [c111b4d2|a9e8b500] (0+3/3) Accurately ripped
06 [875325d4|37838ca0] (0+3/3) Accurately ripped
07 [6d01c0de|5e5a0d14] (0+3/3) Accurately ripped
08 [9d485223|595793fc] (0+3/3) Accurately ripped
09 [4f74376e|357c6ec4] (0+3/3) Accurately ripped
10 [e0adedc3|fdc67c42] (0+3/3) Accurately ripped
11 [390960a7|9c599d92] (0+3/3) Accurately ripped
12 [5133d0b2|ff7ad348] (0+3/3) Accurately ripped
13 [11dd5b5f|cf9f6c2f] (0+3/3) Accurately ripped
14 [fd63d3e2|c7347103] (0+3/3) Accurately ripped
15 [16064f6b|6b054abf] (0+3/3) Accurately ripped

Track Peak [ CRC32 ] [W/O NULL] [ LOG ]
– 99,9 [D5F0A5DD] [19303A2D]
01 42,5 [2454BC93] [83C06A65] CRC32
02 96,7 [856718FC] [182E78B9] CRC32
03 98,4 [F07DB981] [C2ED161A] CRC32
04 80,4 [BFE69591] [D82C7AE3] CRC32
05 97,3 [5518E3AE] [4627C385] CRC32
06 57,0 [E32D1DA6] [5F07D910] CRC32
07 39,8 [CFE33EA0] [087AD771] CRC32
08 59,7 [78E2FF15] [954EC1DD] CRC32
09 72,4 [8F617FFB] [30EACE07] CRC32
10 92,6 [296E253B] [5F399906] CRC32
11 96,2 [23DB7505] [D1D34D28] CRC32
12 67,2 [D4097F3E] [429D17CD] CRC32
13 99,9 [B1E1CF34] [2EB86BAB] CRC32
14 81,2 [FE227CE9] [6080AF47] CRC32
15 73,6 [E303A481] [FC217627] CRC32


Atipico Trio - Gone with the Winds (1997)

All thanks go to Czongi

Avant-Garde Jazz in my Blog

Download Atipico Trio - Gone with the Winds (1997):