Tags
Language
Tags

Aurele Nicolet, Karl Richter - Johann Sebastian Bach: Floten-Sonaten (1989)

Posted By: ArlegZ
Aurele Nicolet, Karl Richter - Johann Sebastian Bach: Floten-Sonaten (1989)

Aurèle Nicolet, Karl Richter - Johann Sebastian Bach: Flöten-Sonaten (1989)
EAC | FLAC | Image (Cue & Log) ~ 341 Mb | Total time: 64:16 | Scans included
Classical | Label: Archiv Produktion | # 427 113-2 | Recorded: 1969, 1973

These are carefully considered and precisely executed interprations. Nicolet has a warm tone, his excellent breathing technique creates wonderful phrasing.
–Gramophone

Performer:
Aurèle Nicolet, Flöte
Karl Richter, Cembalo

Track List:
Sonate für Flöte und Obligates Cembalo h-moll, BWV 1030
01. Andante
02. Largo e Dolce
03. Presto - Allegro
Sonate für Flöte und Obligates Cembalo Es-Dur, BWV 1031
04. Allegro Moderato
05. Siciliano
06. Allegro
Sonate für Flöte und Obligates Cembalo A-dur, BWV 1032
07. Vivace
08. Largo e Dolce
09. Allegro
Sonate für Flöte und Obligates Cembalo g-moll, BWV 1020
10. Allegro
11. Adagio
12. Allegro
Partita in A Moll für Flöte Solo (BWV 1013)
13. Allemande
14. Corrente
15. Sarabande
16. Bourrée Anglaise


Exact Audio Copy V1.6 from 23. October 2020

EAC extraction logfile from 26. November 2021, 17:32

Aurele Nicolet, Karl Richter / Bach - Flötensonaten

Used drive : PIONEER DVD-RW DVR-218L Adapter: 1 ID: 0

Read mode : Secure
Utilize accurate stream : Yes
Defeat audio cache : Yes
Make use of C2 pointers : No

Read offset correction : 6
Overread into Lead-In and Lead-Out : No
Fill up missing offset samples with silence : Yes
Delete leading and trailing silent blocks : No
Null samples used in CRC calculations : Yes
Used interface : Native Win32 interface for Win NT & 2000

Used output format : User Defined Encoder
Selected bitrate : 128 kBit/s
Quality : High
Add ID3 tag : No
Command line compressor : C:\Program Files\Exact Audio Copy\Flac\flac.exe
Additional command line options : -V -8 -T "Date=%year%" -T "Genre=%genre%" %source%


TOC of the extracted CD

Track | Start | Length | Start sector | End sector
––––––––––––––––––––––––––––-
1 | 0:00.33 | 7:26.00 | 33 | 33482
2 | 7:26.33 | 3:48.62 | 33483 | 50644
3 | 11:15.20 | 5:54.13 | 50645 | 77207
4 | 17:09.33 | 3:51.62 | 77208 | 94594
5 | 21:01.20 | 2:18.25 | 94595 | 104969
6 | 23:19.45 | 4:41.63 | 104970 | 126107
7 | 28:01.33 | 5:05.25 | 126108 | 149007
8 | 33:06.58 | 3:05.52 | 149008 | 162934
9 | 36:12.35 | 4:21.73 | 162935 | 182582
10 | 40:34.33 | 4:05.50 | 182583 | 201007
11 | 44:40.08 | 3:02.50 | 201008 | 214707
12 | 47:42.58 | 4:50.50 | 214708 | 236507
13 | 52:33.33 | 3:13.37 | 236508 | 251019
14 | 55:46.70 | 2:27.13 | 251020 | 262057
15 | 58:14.08 | 4:07.02 | 262058 | 280584
16 | 62:21.10 | 1:55.23 | 280585 | 289232


Range status and errors

Selected range

Filename C:\ArlegZ\Bach - Flötensonaten - Aurele Nicolet, Karl Richter.wav

Peak level 97.7 %
Extraction speed 1.9 X
Range quality 100.0 %
Test CRC FC3E1DDB
Copy CRC FC3E1DDB
Copy OK

No errors occurred


AccurateRip summary

Track 1 cannot be verified as accurate (confidence 21) [39462B3A], AccurateRip returned [1AD69430] (AR v2)
Track 2 cannot be verified as accurate (confidence 22) [8DC8CE41], AccurateRip returned [134AD1AB] (AR v2)
Track 3 cannot be verified as accurate (confidence 22) [C908AA9E], AccurateRip returned [F458D65D] (AR v2)
Track 4 cannot be verified as accurate (confidence 22) [3C07F1BA], AccurateRip returned [27AD21CB] (AR v2)
Track 5 cannot be verified as accurate (confidence 23) [37B10188], AccurateRip returned [909A93EE] (AR v2)
Track 6 cannot be verified as accurate (confidence 22) [9A5F1490], AccurateRip returned [55F13FB4] (AR v2)
Track 7 cannot be verified as accurate (confidence 22) [12353A3C], AccurateRip returned [74C063A2] (AR v2)
Track 8 cannot be verified as accurate (confidence 22) [43CFDADE], AccurateRip returned [B5C79376] (AR v2)
Track 9 cannot be verified as accurate (confidence 22) [692D1A17], AccurateRip returned [6CF40D34] (AR v2)
Track 10 cannot be verified as accurate (confidence 22) [76F402BA], AccurateRip returned [A611B7F0] (AR v2)
Track 11 cannot be verified as accurate (confidence 22) [A60F1038], AccurateRip returned [EDB1BE65] (AR v2)
Track 12 cannot be verified as accurate (confidence 22) [6E246F31], AccurateRip returned [C13F675B] (AR v2)
Track 13 cannot be verified as accurate (confidence 22) [D1EF34DA], AccurateRip returned [2E914294] (AR v2)
Track 14 cannot be verified as accurate (confidence 21) [C6E3D31B], AccurateRip returned [CAFA456A] (AR v2)
Track 15 cannot be verified as accurate (confidence 21) [CF630073], AccurateRip returned [19FC0360] (AR v2)
Track 16 cannot be verified as accurate (confidence 22) [70EC1E31], AccurateRip returned [9D829396] (AR v2)

No tracks could be verified as accurate
You may have a different pressing from the one(s) in the database

End of status report

–– CUETools DB Plugin V2.1.6

[CTDB TOCID: HfoCxZt7dQSZmmG45J5wDY7D_dg-] found
Submit result: HfoCxZt7dQSZmmG45J5wDY7D_dg- has been confirmed
Track | CTDB Status
1 | (87/92) Accurately ripped
2 | (88/92) Accurately ripped, or (1/92) differs in 1367 samples @00:00:32-00:00:34
3 | (87/92) Accurately ripped, or (1/92) differs in 1378 samples @00:00:32-00:00:34
4 | (90/92) Accurately ripped
5 | (87/92) Accurately ripped, or (1/92) differs in 1454 samples @00:00:32-00:00:34
6 | (88/92) Accurately ripped, or (1/92) differs in 1493 samples @00:00:32-00:00:34
7 | (90/92) Accurately ripped
8 | (89/92) Accurately ripped, or (1/92) differs in 1443 samples @00:00:32-00:00:34
9 | (87/92) Accurately ripped, or (1/92) differs in 2321 samples @00:00:32-00:00:34
10 | (88/92) Accurately ripped
11 | (87/92) Accurately ripped, or (1/92) differs in 1415 samples @00:00:32-00:00:34
12 | (85/92) Accurately ripped, or (1/92) differs in 1455 samples @00:00:32-00:00:34
13 | (89/92) Accurately ripped
14 | (89/92) Accurately ripped, or (1/92) differs in 1932 samples @00:00:32-00:00:34
15 | (87/92) Accurately ripped, or (1/92) differs in 2021 samples @00:00:32-00:00:34
16 | (88/92) Accurately ripped, or (1/92) differs in 2325 samples @00:00:32-00:00:34


==== Log checksum E0F2E39777E01AE40DD6FF022E818C8AFE81F7CCBF2719BC3520EB018022EA46 ====

Aurele Nicolet, Karl Richter - Johann Sebastian Bach: Floten-Sonaten (1989)