Subcategories

Beach House - B-Sides & Rarities (2017)

Posted By: SERTiL
Beach House - B-Sides & Rarities (2017)

Beach House - B-Sides & Rarities
XLD Rip | FLAC (tracks)+cue, log, front cover | 56:27 min | 340 MB
Label: Sub Pop Records – SP 1205 | Tracks: 14 | Rls.date: 2017
Indie Pop, Dream Pop, Female Vocal

This compilation contains every song Beach House – aka Alex Scally and Victoria Legrand – has made that does not exist on one of their albums. The band explains: When we announced that we were releasing a B-sides and rarities album, someone on Twitter asked, “B-sides record? Why would Beach House put out a B-sides record? Their A-sides are like B-sides.” This random person has a point. Our goal has never been to make music that is explicitly commercial. Over the years, as we have worked on our 6 LPs, it wasn’t the “best" or most catchy songs that made the records, just the ones that fit together to make a cohesive work. Accordingly, our B-sides are not songs that we didn’t like as much, just ones that didn’t have a place on the records we were making. The oldest song is “Rain in Numbers” and was recorded in 2005, during the summer when we formed the band. We didn’t have a piano, so we asked our friend if we could use his, which was pretty out of tune. We used the mic that was on the four-track machine to record the piano and vocals. It was originally the secret song on our self-titled debut. The next couple of songs are from late 2008. We were so excited about “Used to Be” that we quickly recorded it and put it on a 7” for our fall tour with the Baltimore Round Robin. The same session begat our cover of Queen’s “Play the Game” for a charity compilation benefiting AIDS research; we will continue to donate all profits from the song to that charity. As fans of Queen, we thought it would be fun and ridiculous to try to adapt their high-powered pop song into our realm. These songs were recorded at the same studio where we made Devotion. There are a bunch of songs written and recorded in the 2009-2010 window. “Baby” was written and recorded in October 2009 with our friend Jason Quever. “10 Mile Stereo” was recorded during the Teen Dream session in July 2009. Since we used tape, we often slowed the tape way down to create effects while recording, which led to “10 Mile Stereo (Cough Syrup Remix).” “White Moon” and “The Arrangement” were both songs that we didn’t believe fit on Teen Dream. “White Moon” originally appeared on our iTunes live session. Since that was recorded and mixed very hastily, we have remixed it to better match our current aesthetics. We have also remixed and included the version of “Norway" we did at that same session. We wrote and recorded “I Do Not Care for the Winter Sun” during a break between tours and released it on the internet for free,unmastered. Well, it’s finally been mastered…

TRACKLIST
01. Chariot 05:16
02. Baby 03:02
03. Equal Mind 03:42
04. Used to Be (2008 Single Version) 04:05
05. White Moon (iTunes Session Remix) 04:07
06. Baseball Diamond 04:36
07. Norway (iTunes Session Remix) 03:16
08. Play the Game 04:18
09. The Arrangement 05:04
10. Saturn Song 04:30
11. Rain in Numbers 02:26
12. I Do Not Care for the Winter Sun 03:11
13. 10 Mile Stereo (Cough Syrup Remix) 05:30
14. Wherever You Go 03:26

X Lossless Decoder version 20151214 (149.1)

XLD extraction logfile from 2017-07-03 08:10:45 -0400

Beach House / B-Sides and Rarities

Used drive : MATSHITA DVD-R UJ-8A8 (revision HA13)
Media type : Pressed CD

Ripper mode : XLD Secure Ripper
Disable audio cache : OK for the drive with a cache less than 1375KiB
Make use of C2 pointers : NO
Read offset correction : 102
Max retry count : 100
Gap status : Analyzed, Appended (except HTOA)

TOC of the extracted CD
Track | Start | Length | Start sector | End sector
––––––––––––––––––––––––––––-
1 | 00:00:00 | 05:16:38 | 0 | 23737
2 | 05:16:38 | 03:02:49 | 23738 | 37436
3 | 08:19:12 | 03:42:58 | 37437 | 54144
4 | 12:01:70 | 04:05:41 | 54145 | 72560
5 | 16:07:36 | 04:06:72 | 72561 | 91082
6 | 20:14:33 | 04:36:09 | 91083 | 111791
7 | 24:50:42 | 03:16:25 | 111792 | 126516
8 | 28:06:67 | 04:18:19 | 126517 | 145885
9 | 32:25:11 | 05:04:54 | 145886 | 168739
10 | 37:29:65 | 04:30:48 | 168740 | 189037
11 | 42:00:38 | 02:26:45 | 189038 | 200032
12 | 44:27:08 | 03:10:73 | 200033 | 214355
13 | 47:38:06 | 05:30:40 | 214356 | 239145
14 | 53:08:46 | 03:26:50 | 239146 | 254645

AccurateRip Summary
Disc not found in AccurateRip DB.

All Tracks
Album gain : -7.95 dB
Peak : 0.999969
Statistics
Read error : 0
Jitter error (maybe fixed) : 0
Retry sector count : 0
Damaged sector count : 0

Track 01
Filename : /Users/baconfat/Desktop/XLD rips/Beach House - B-Sides and Rarities (2017) [FLAC]/01 Chariot.flac
Pre-gap length : 00:02:00

Track gain : -8.91 dB
Peak : 0.966156
CRC32 hash (test run) : FF38A078
CRC32 hash : FF38A078
CRC32 hash (skip zero) : 33D6116B
AccurateRip v1 signature : 8F240E3A
AccurateRip v2 signature : 47B54E77
->Track not present in AccurateRip database.
Statistics
Read error : 0
Jitter error (maybe fixed) : 0
Retry sector count : 0
Damaged sector count : 0

Track 02
Filename : /Users/baconfat/Desktop/XLD rips/Beach House - B-Sides and Rarities (2017) [FLAC]/02 Baby.flac

Track gain : -6.92 dB
Peak : 0.965302
CRC32 hash (test run) : CCA7523A
CRC32 hash : CCA7523A
CRC32 hash (skip zero) : 2EB52DF7
AccurateRip v1 signature : D39EED93
AccurateRip v2 signature : 6F14874A
->Track not present in AccurateRip database.
Statistics
Read error : 0
Jitter error (maybe fixed) : 0
Retry sector count : 0
Damaged sector count : 0

Track 03
Filename : /Users/baconfat/Desktop/XLD rips/Beach House - B-Sides and Rarities (2017) [FLAC]/03 Equal Mind.flac

Track gain : -8.17 dB
Peak : 0.966156
CRC32 hash (test run) : 1A9959F9
CRC32 hash : 1A9959F9
CRC32 hash (skip zero) : 1333858B
AccurateRip v1 signature : A6DC0348
AccurateRip v2 signature : F279D5C7
->Track not present in AccurateRip database.
Statistics
Read error : 0
Jitter error (maybe fixed) : 0
Retry sector count : 0
Damaged sector count : 0

Track 04
Filename : /Users/baconfat/Desktop/XLD rips/Beach House - B-Sides and Rarities (2017) [FLAC]/04 Used to Be (2008 single version).flac

Track gain : -8.11 dB
Peak : 0.966187
CRC32 hash (test run) : 3671824F
CRC32 hash : 3671824F
CRC32 hash (skip zero) : 21BF4A65
AccurateRip v1 signature : F779FC6F
AccurateRip v2 signature : 15582E94
->Track not present in AccurateRip database.
Statistics
Read error : 0
Jitter error (maybe fixed) : 0
Retry sector count : 0
Damaged sector count : 0

Track 05
Filename : /Users/baconfat/Desktop/XLD rips/Beach House - B-Sides and Rarities (2017) [FLAC]/05 White Moon (iTunes sessions remix).flac

Track gain : -7.42 dB
Peak : 0.966125
CRC32 hash (test run) : E88616C3
CRC32 hash : E88616C3
CRC32 hash (skip zero) : A8F3AF96
AccurateRip v1 signature : 1094E92F
AccurateRip v2 signature : 03BDE3A5
->Track not present in AccurateRip database.
Statistics
Read error : 0
Jitter error (maybe fixed) : 0
Retry sector count : 0
Damaged sector count : 0

Track 06
Filename : /Users/baconfat/Desktop/XLD rips/Beach House - B-Sides and Rarities (2017) [FLAC]/06 Baseball Diamond.flac

Track gain : -8.66 dB
Peak : 0.966156
CRC32 hash (test run) : DAF7966F
CRC32 hash : DAF7966F
CRC32 hash (skip zero) : C25EE4C5
AccurateRip v1 signature : 9E28A743
AccurateRip v2 signature : 9FF1FA4C
->Track not present in AccurateRip database.
Statistics
Read error : 0
Jitter error (maybe fixed) : 0
Retry sector count : 0
Damaged sector count : 0

Track 07
Filename : /Users/baconfat/Desktop/XLD rips/Beach House - B-Sides and Rarities (2017) [FLAC]/07 Norway (iTunes sessions remix).flac

Track gain : -7.62 dB
Peak : 0.966156
CRC32 hash (test run) : 9A44FB73
CRC32 hash : 9A44FB73
CRC32 hash (skip zero) : DBDE613B
AccurateRip v1 signature : 8D878585
AccurateRip v2 signature : 1E9D7F77
->Track not present in AccurateRip database.
Statistics
Read error : 0
Jitter error (maybe fixed) : 0
Retry sector count : 0
Damaged sector count : 0

Track 08
Filename : /Users/baconfat/Desktop/XLD rips/Beach House - B-Sides and Rarities (2017) [FLAC]/08 Play the Game.flac

Track gain : -6.93 dB
Peak : 0.966125
CRC32 hash (test run) : B9556140
CRC32 hash : B9556140
CRC32 hash (skip zero) : 17D4D303
AccurateRip v1 signature : 1233EDF4
AccurateRip v2 signature : D50799E9
->Track not present in AccurateRip database.
Statistics
Read error : 0
Jitter error (maybe fixed) : 0
Retry sector count : 0
Damaged sector count : 0

Track 09
Filename : /Users/baconfat/Desktop/XLD rips/Beach House - B-Sides and Rarities (2017) [FLAC]/09 The Arrangement.flac

Track gain : -8.08 dB
Peak : 0.999969
CRC32 hash (test run) : 795D8DEF
CRC32 hash : 795D8DEF
CRC32 hash (skip zero) : B6018910
AccurateRip v1 signature : F78896BD
AccurateRip v2 signature : 0A50EB61
->Track not present in AccurateRip database.
Statistics
Read error : 0
Jitter error (maybe fixed) : 0
Retry sector count : 0
Damaged sector count : 0

Track 10
Filename : /Users/baconfat/Desktop/XLD rips/Beach House - B-Sides and Rarities (2017) [FLAC]/10 Saturn Song.flac

Track gain : -5.87 dB
Peak : 0.966156
CRC32 hash (test run) : 0D5412FE
CRC32 hash : 0D5412FE
CRC32 hash (skip zero) : F732C676
AccurateRip v1 signature : 4DCBA3D4
AccurateRip v2 signature : 12DF1E69
->Track not present in AccurateRip database.
Statistics
Read error : 0
Jitter error (maybe fixed) : 0
Retry sector count : 0
Damaged sector count : 0

Track 11
Filename : /Users/baconfat/Desktop/XLD rips/Beach House - B-Sides and Rarities (2017) [FLAC]/11 Rain In Numbers.flac

Track gain : -6.97 dB
Peak : 0.966125
CRC32 hash (test run) : 6835C7DE
CRC32 hash : 6835C7DE
CRC32 hash (skip zero) : 9CD0D0C4
AccurateRip v1 signature : C5D132C8
AccurateRip v2 signature : 18D3CB14
->Track not present in AccurateRip database.
Statistics
Read error : 0
Jitter error (maybe fixed) : 0
Retry sector count : 0
Damaged sector count : 0

Track 12
Filename : /Users/baconfat/Desktop/XLD rips/Beach House - B-Sides and Rarities (2017) [FLAC]/12 I Do Not Care for the Winter Sun.flac

Track gain : -7.31 dB
Peak : 0.966156
CRC32 hash (test run) : 4C323550
CRC32 hash : 4C323550
CRC32 hash (skip zero) : 90A0E8FD
AccurateRip v1 signature : 1AF00EA3
AccurateRip v2 signature : CC7FA8B1
->Track not present in AccurateRip database.
Statistics
Read error : 0
Jitter error (maybe fixed) : 0
Retry sector count : 0
Damaged sector count : 0

Track 13
Filename : /Users/baconfat/Desktop/XLD rips/Beach House - B-Sides and Rarities (2017) [FLAC]/13 10 Mile Stereo (Cough Syrup remix).flac

Track gain : -8.02 dB
Peak : 0.999969
CRC32 hash (test run) : EA6BAFDC
CRC32 hash : EA6BAFDC
CRC32 hash (skip zero) : B61DEC92
AccurateRip v1 signature : 5480B365
AccurateRip v2 signature : 04F6FD83
->Track not present in AccurateRip database.
Statistics
Read error : 0
Jitter error (maybe fixed) : 0
Retry sector count : 0
Damaged sector count : 0

Track 14
Filename : /Users/baconfat/Desktop/XLD rips/Beach House - B-Sides and Rarities (2017) [FLAC]/14 Wherever You Go.flac

Track gain : -6.30 dB
Peak : 0.966095
CRC32 hash (test run) : A35F4A9F
CRC32 hash : A35F4A9F
CRC32 hash (skip zero) : 12540991
AccurateRip v1 signature : 4A3EABF0
AccurateRip v2 signature : 54C35F31
->Track not present in AccurateRip database.
Statistics
Read error : 0
Jitter error (maybe fixed) : 0
Retry sector count : 0
Damaged sector count : 0

No errors occurred

End of status report

––-BEGIN XLD SIGNATURE––-
HjU9hvWGipbccy5URdquY0sR4a4e41TwDWioZwKVwVjyz6DIfIXS0L6I0sXnZiYtpxJJnpsjazN76z8eGLLiziX341e8nTiCCV4Cxoy
––-END XLD SIGNATURE––-


Thanks to the Original customer.