Tags
Language
Tags

Banco del Mutuo Soccorso - Darwin (1991) [Virgin Dischi SpA 8 39079 2, Italy]

Posted By:
Banco del Mutuo Soccorso - Darwin (1991) [Virgin Dischi SpA 8 39079 2, Italy]

Banco del Mutuo Soccorso - Darwin (1991)
EAC | Flac(Image) + Cue + Log & MP3 CBR 320Kbps
Virgin Dischi SpA, 8 39079 2 | ~ 308 or 129 Mb | Scans(jpg) -> 126 Mb
Progressive Rock, RPI

Darwin! will remain Banco del Mutuo Soccorso's masterpiece. This album, the band's second, is the proud equal of Premiata Forneria Marconi's Per Un Amico and Le Orme's Felona e Sorona in the Italian progressive rock hall of fame. In Darwin!, every promise made by Banco's eponymous debut was realized. Vittorio Nocenzi's writing has flourished into complex songs blending Italian songwriting, bel canto, and progressive rock. The arrival of guitarist Rodolfo Maltese crystallized the band's luxurious sound, all topped by Francesco Di Giacomo's operatic vocals. The majestic "L'Evoluzione" opens the album, providing some of the best moments ever recorded by this band (along with "Canto Nomade per un Prigioniero Politico"). "La Conquista Della Posizione Eretta" ("The Conquest of the Wrong Position") reproduces the same pattern as "Metamorphosi" from the first album: a frenetic instrumental theme, scaled down toward the end to let room for a very emotional verse. "La Danza de Grandi Rettili" is a rare jazzy number. Di Giacomo shines on "750,000 Anni Fa…L'Amore?," a heart-wrenching ballad much closer to Italian pop music than progressive rock. The album comes to an end with "Ed Ora la Domando Tempo al Tempo," a short piece inspired by merry-go-round music. The original version of the album bears a cover with a pocket watch. Never satisfied with the sound quality of the original tapes, the band re-recorded the whole album in 1991 and issued it with blue cover artwork. Purists turned their back on this new version, but it is actually very well performed, even though it has lost the vintage 1970s Italian flavor. The original Darwin! was eventually also reissued on CD.

by François Couture, allmusic
Banco del Mutuo Soccorso - Darwin (1991) [Virgin Dischi SpA 8 39079 2, Italy]

Banco del Mutuo Soccorso - Darwin (1991):

Banco del Mutuo Soccorso - Darwin (1991) [Virgin Dischi SpA 8 39079 2, Italy]

Tracklist:

01. L'Evoluzione
02. La Conquista Della Pozisione Eretta
03. La Danza Dei Grandi Rettili
04. Cento Mani, Cento Occhi
05. 750.000 Anni Fa…L'amore
06. Miserere Alla Storia
07. Ed Ora Io Domandi Tempo Al Tempo

Exact Audio Copy V1.0 beta 3 from 29. August 2011

EAC extraction logfile from 21. January 2014, 17:39

Banco del Mutuo Soccorso / Darwin (1991 edition)

Used drive : PLEXTOR DVDR PX-891SA Adapter: 0 ID: 2

Read mode : Secure
Utilize accurate stream : Yes
Defeat audio cache : Yes
Make use of C2 pointers : No

Read offset correction : 6
Overread into Lead-In and Lead-Out : No
Fill up missing offset samples with silence : Yes
Delete leading and trailing silent blocks : No
Null samples used in CRC calculations : Yes
Used interface : Installed external ASPI interface

Used output format : User Defined Encoder
Selected bitrate : 320 kBit/s
Quality : High
Add ID3 tag : No
Command line compressor : C:\Program Files\Exact Audio Copy 1.0\Flac\flac.exe
Additional command line options : -V -8 -T "Genre=%genre%" -T "Artist=%artist%" -T "Title=%title%" -T "Album=%albumtitle%" -T "Date=%year%" -T "Tracknumber=%tracknr%" -T "Comment=%comment%" %source%


TOC of the extracted CD

Track | Start | Length | Start sector | End sector
––––––––––––––––––––––––––––-
1 | 0:00.00 | 16:46.30 | 0 | 75479
2 | 16:46.30 | 9:59.22 | 75480 | 120426
3 | 26:45.52 | 4:15.18 | 120427 | 139569
4 | 31:00.70 | 6:03.50 | 139570 | 166844
5 | 37:04.45 | 7:53.60 | 166845 | 202379
6 | 44:58.30 | 6:18.35 | 202380 | 230764
7 | 51:16.65 | 3:23.47 | 230765 | 246036


Range status and errors

Selected range

Filename K:\Lossless Temp\Banco Del Mutuo Soccorso\Banco Del Mutuo Soccorso - Darwin - 1991 (Virgin Dischi SpA, 8 39079 2)\Banco del Mutuo Soccorso - Darwin (1991 edition).wav

Peak level 100.0 %
Extraction speed 6.0 X
Range quality 99.9 %
Test CRC 575B7F30
Copy CRC 575B7F30
Copy OK

No errors occurred


AccurateRip summary

Track 1 accurately ripped (confidence 2) [AF45D271] (AR v1)
Track 2 accurately ripped (confidence 2) [D589AE49] (AR v1)
Track 3 accurately ripped (confidence 2) [76EDDD38] (AR v1)
Track 4 accurately ripped (confidence 2) [731DCD09] (AR v1)
Track 5 accurately ripped (confidence 2) [27B3502F] (AR v1)
Track 6 accurately ripped (confidence 2) [832698FE] (AR v1)
Track 7 accurately ripped (confidence 2) [AA2DCDEB] (AR v1)

All tracks accurately ripped

End of status report

==== Log checksum 7884ABADA59AABA2F70EB36DEDB51F29634AF615ABFCFA9211CC93F2017BC071 ====


[CUETools log; Date: 11.03.2014 14:54:38; Version: 2.0.9]
[AccurateRip ID: 00120740-00664656-510cd007] found.
Track [ CRC ] Status
01 [af45d271] (02/16) Accurately ripped
02 [d589ae49] (02/16) Accurately ripped
03 [76eddd38] (02/16) Accurately ripped
04 [731dcd09] (02/16) Accurately ripped
05 [27b3502f] (02/15) Accurately ripped
06 [832698fe] (02/16) Accurately ripped
07 [aa2dcdeb] (02/16) Accurately ripped
Offsetted by 1310:
01 [5f67398a] (11/16) Accurately ripped
02 [83b40394] (11/16) Accurately ripped
03 [29148a09] (11/16) Accurately ripped
04 [3bbfaa5b] (11/16) Accurately ripped
05 [af491510] (10/15) Accurately ripped
06 [4020272f] (11/16) Accurately ripped
07 [7fda4d9e] (11/16) Accurately ripped
Offsetted by -55:
01 [7bd8417a] (02/16) No match but offset
02 [409c20de] (02/16) No match but offset
03 [35cd8bc5] (02/16) No match but offset
04 [e3da6cc8] (02/16) No match but offset
05 [4ffeceb1] (02/15) No match but offset
06 [88c4325b] (02/16) No match but offset
07 [bf8fcb6c] (02/16) No match but offset

Track Peak [ CRC32 ] [W/O NULL] [ LOG ]
– 100,0 [575B7F30] [BC21E429] CRC32
01 81,4 [868459E1] [DE29F1A4]
02 81,1 [FE9DCB8F] [B59E9701]
03 94,3 [C6BE1D7F] [03E6FBFE]
04 95,9 [CC737E2A] [E6192B60]
05 100,0 [F1E6F8ED] [1EE76F24]
06 82,0 [02DF3840] [02F3CDED]
07 96,2 [DF8EEA4A] [BD4B6313]


Banco del Mutuo Soccorso - Darwin (1991) [Virgin Dischi SpA 8 39079 2, Italy]

All thanks go to Swamp Fox

Banco del Mutuo Soccorso or Banco del Mutuo Soccorso in my Blog

Download Banco del Mutuo Soccorso - Darwin (1991):