Tags
Language
Tags

Barry Guy - Three pieces for orchestra - London Jazz Composers Orchestra (1997)

Posted By: basa005
Barry Guy - Three pieces for orchestra - London Jazz Composers Orchestra (1997)

Barry Guy - Three pieces for orchestra - London Jazz Composers Orchestra (1997)
EAC RIP | APE + CUE + LOG | COVER + BOOK | RAR FILES (3% recovery) | 358 Mb
Jazz | Intakt 045

Barry Guy - Three pieces for orchestra - London Jazz Composers Orchestra (1997)

Tracklist:
1. Owed to J.S. (John Stevens) (20.28)
2-4. Sleeping furiously: part 1 (06.21); part 2 (12.31); part 3 (05.13)
Featuring Marilyn Crispell, piano
5. Strange loops (22.00)
Featuring Maggie Nicols, voice

Barry Guy, bass, director
Henry Lowther, trumpet
Jon Corbett, trumpet
Marc Charig, cornet
Paul Rutherford, trombone
Chris Bridges, trombone
Alan Tomlinson, trombone
Robin Hayward, tuba
Howard Riley, piano
Trevor Watts, alto saxophone, soprano saxophone
Simon Picard, reeds
Peter McPhail, reeds
Paul Dunmall, reeds
Evan Parker, soprano saxophone, tenor saxophone
Phil Wachsmann, violin
Barre Phillips, bass
Paul Lytton, drums

Guests:
Irène Schweizer, Piano
Marilyn Crispell, Piano
Maggie Nicols, Voice

Recorded on 18 December 1995 at Rote Fabrik Zurich.
Cover art (reproduced above) by Eugen Bisig.


Exact Audio Copy V1.0 beta 2 from 29. April 2011

EAC extraction logfile from 19. October 2011, 16:08

LJCO / Three Pieces for Orchestra

Used drive : TSSTcorpCDDVDW SE-S204N Adapter: 2 ID: 0

Read mode : Secure
Utilize accurate stream : Yes
Defeat audio cache : Yes
Make use of C2 pointers : No

Read offset correction : 6
Overread into Lead-In and Lead-Out : No
Fill up missing offset samples with silence : Yes
Delete leading and trailing silent blocks : No
Null samples used in CRC calculations : No
Used interface : Native Win32 interface for Win NT & 2000

Used output format : Internal WAV Routines
Sample format : 44.100 Hz; 16 Bit; Stereo


TOC of the extracted CD

Track | Start | Length | Start sector | End sector
––––––––––––––––––––––––––––-
1 | 0:00.00 | 20:40.62 | 0 | 93061
2 | 20:40.62 | 6:29.00 | 93062 | 122236
3 | 27:09.62 | 12:37.00 | 122237 | 179011
4 | 39:46.62 | 5:24.00 | 179012 | 203311
5 | 45:10.62 | 22:00.13 | 203312 | 302324


Range status and errors

Selected range

Filename C:\avaxhome\LJCO - Three Pieces for Orchestra.wav

Peak level 100.0 %
Extraction speed 7.6 X
Range quality 100.0 %
Copy CRC E2FE91D1
Copy OK

No errors occurred


AccurateRip summary

Track 1 accurately ripped (confidence 1) [424D489E] (AR v1)
Track 2 accurately ripped (confidence 1) [95B18046] (AR v1)
Track 3 accurately ripped (confidence 1) [92301F40] (AR v1)
Track 4 accurately ripped (confidence 1) [4D230235] (AR v1)
Track 5 accurately ripped (confidence 1) [FDAE6572] (AR v1)

All tracks accurately ripped

End of status report

==== Log checksum 1500DBEC105EFE81122B3C0122AB173B6920D853B7F1532F93E347435B0EFFEC ====
megaupload
MU link

password: basa005