Tags
Language
Tags

Barthold Kuijken, Wieland Kuijken, Robert Kohnen - French and Italian Flute Music of the 18th Century (2007)

Posted By: ArlegZ
Barthold Kuijken, Wieland Kuijken, Robert Kohnen - French and Italian Flute Music of the 18th Century (2007)

Barthold Kuijken, Wieland Kuijken, Robert Kohnen - French and Italian Flute Music of the 18th Century (2007)
EAC | FLAC | Image (Cue & Log) ~ 579 Mb | Total time: 128:24 | Scans included
Classical | Label: Accent | # ACC 30009 | Recorded: 1979, 1991

Germany's Accent label has released a series of twin-CD sets featuring the Baroque flute recordings made by Barthold Kuijken, sometimes (as here) accompanied by his cello-playing brother Wieland. The originals date back to the late '70s, when Kuijken was one of the Dutch specialists who brought historical performance out of the too-precious phase, and they still sound good. This release pairs a 1979 set of French flute sonatas from the middle eighteenth century with a 1991 group of Italian works of the same period. The two discs, both recorded in Belgian churches, don't have exactly the same ambiance, but the pairing is an intelligent one, making this a good pick from among the various discs available. Much of the music was originally written for recorder or violin, but arrangement for the flute would have been perfectly normal at the time, and Kuijken conveys a terrific sense of the new instrument's powers, improvising dense, rippling waves of ornamentation in the slow movements and leaping nimbly through the arpeggiation of the allegros. Disc 2 presents, mostly, the Italian music that inspired Frenchmen like Blavet and Jean-Marie Leclair who introduced the sonata to France, opening with virtuoso violin works by Corelli, Geminiani, and Veracini that sound in Kuijken's hands as though they were the products of a touring flutist. Disc 1 contains music by several composers, such as Jean-Pierre Guignon, who remain little heard. These recordings are still early music classics, suited equally to scholarly listening and casual enjoyment of their sprightly, frilly sounds.
–James Manheim

Performer:
Barthold Kuijken, flute
Wieland Kuijken, viola da gamba, baroque cello
Robert Kohnen, harpsihord

Track List:
CD1:
Michel Pignolet de Montéclair (1667-1737)
Deuxième Concert pour la Flûte Traversière
01. Prélude, lentement
02. Allemande
03. Courante à l'Italien, croches égales
04. Plainte, tendrement
05. Sarabande, tendrement
06. Rondeau, un peu légèrement
Michel Blavet (1700-1768)
Sonata Seconda
07. Andante, La Vibray
08. Allemanda, Allegro
09. Gavotta moderato, les Caquets
10. Sarabande, Largo
11. Allegro
Jean-Pierre Guignon (1702-1774)
Sonata A major, Op.1 No.8
12. Allegro, poco grazioso
13. Un poco andante
14. Allegro poco e grazioso
15. Allegro molto
Joseph Bodin de Boismortier (ca.1691-1755)
Deuxième Sonate G minor
16. Gayement
17. Gracieusement
18. Gayement
Jean Marie Leclair (1697-1764)
Sonata VII Qui peut se jouer sur la Flûte Allemande
19. Dolce. Andante
20. Allegro ma non troppo
21. Aria. Affetuoso - altro
22. Giga. Allegro moderato
CD2:
Arcangelo Corelli (1653-1713)
Sonata in E minor, Op.5 No.8
01. Preludio. Largo
02. Allemanda. Allegro
03. Sarabanda. Largo
04. Giga. Allegro
Francesco Geminiani (1679/80-1762)
Sonata in D major, Op.1 No.10
05. Adagio
06. Allegro
07. Adagio
08. Allegro - Adagio
09. Presto
Francesco Maria Veracini (1690-1768)
Sonata sesta in E minor, Op.1
10. Fantasia. Largo - Allegro - Largo
11. Alemanda. Larghetto
12. Pastorale. Adagio
13. Giga. Allegro
Pietro Antonio Locatelli (1695-1764)
Sonata in C major, Op.2 No.1
14. Andante
15. Adagio
16. Presto
Tomaso Albinoni (1671-1751)
Sonata in A minor
17. Grave Adagio
18. Allegro
19. Adagio
20. Allegro
Antonio Vivaldi (attr.) (1678?-1741)
Sonata in G minor, Op.13 No.6, RV 58
21. Vivace
22. Allabreve, Fuga da Capella
23. Largo
24. Allegro ma non presto
Giovanni Benedetto Platti (ca.1700-1763)
Sonata in G major, Op.3
25. Siciliana. Adagio
26. Allegro
27. Non tanto adagio ma cantabile
28. Arietta con Variazioni non tanto allegro


Exact Audio Copy V1.1 from 23. June 2015

EAC extraction logfile from 5. December 2015, 19:28

Barthold Kuijken, Wielan Kuijken, Robert Kohnen / French and Italian Flute Music - CD1

Used drive : HL-DT-STDVDRAM GU70N Adapter: 1 ID: 0

Read mode : Secure
Utilize accurate stream : Yes
Defeat audio cache : Yes
Make use of C2 pointers : No

Read offset correction : 48
Overread into Lead-In and Lead-Out : No
Fill up missing offset samples with silence : Yes
Delete leading and trailing silent blocks : No
Null samples used in CRC calculations : Yes
Used interface : Native Win32 interface for Win NT & 2000

Used output format : User Defined Encoder
Selected bitrate : 128 kBit/s
Quality : High
Add ID3 tag : No
Command line compressor : C:\Program Files (x86)\Exact Audio Copy\Flac\flac.exe
Additional command line options : -V -8 -T "Date=%year%" -T "Genre=%genre%" %source%


TOC of the extracted CD

Track | Start | Length | Start sector | End sector
––––––––––––––––––––––––––––-
1 | 0:00.33 | 2:03.45 | 33 | 9302
2 | 2:04.03 | 1:48.52 | 9303 | 17454
3 | 3:52.55 | 1:16.15 | 17455 | 23169
4 | 5:08.70 | 3:02.45 | 23170 | 36864
5 | 8:11.40 | 2:48.13 | 36865 | 49477
6 | 10:59.53 | 1:55.57 | 49478 | 58159
7 | 12:55.35 | 2:48.33 | 58160 | 70792
8 | 15:43.68 | 1:59.12 | 70793 | 79729
9 | 17:43.05 | 1:33.63 | 79730 | 86767
10 | 19:16.68 | 2:23.00 | 86768 | 97492
11 | 21:39.68 | 2:53.50 | 97493 | 110517
12 | 24:33.43 | 2:31.47 | 110518 | 121889
13 | 27:05.15 | 1:23.65 | 121890 | 128179
14 | 28:29.05 | 2:32.35 | 128180 | 139614
15 | 31:01.40 | 1:40.48 | 139615 | 147162
16 | 32:42.13 | 2:31.20 | 147163 | 158507
17 | 35:13.33 | 3:14.67 | 158508 | 173124
18 | 38:28.25 | 2:25.30 | 173125 | 184029
19 | 40:53.55 | 3:51.20 | 184030 | 201374
20 | 44:45.00 | 2:55.55 | 201375 | 214554
21 | 47:40.55 | 2:40.08 | 214555 | 226562
22 | 50:20.63 | 2:42.05 | 226563 | 238717


Range status and errors

Selected range

Filename C:\temp\ACC 30009 - French and Italian Flute Music\CD1\French and Italian Flute Music - CD1.wav

Peak level 86.3 %
Extraction speed 4.9 X
Range quality 99.9 %
Test CRC D5D8B7F4
Copy CRC D5D8B7F4
Copy OK

No errors occurred


AccurateRip summary

Track 1 accurately ripped (confidence 2) [5F7F03ED] (AR v2)
Track 2 accurately ripped (confidence 2) [73DC1E58] (AR v2)
Track 3 accurately ripped (confidence 2) [294A55AA] (AR v2)
Track 4 accurately ripped (confidence 2) [6536E604] (AR v2)
Track 5 accurately ripped (confidence 2) [85AF291D] (AR v2)
Track 6 accurately ripped (confidence 2) [08DF8621] (AR v2)
Track 7 accurately ripped (confidence 2) [64FB378A] (AR v2)
Track 8 accurately ripped (confidence 2) [2BDFA7F2] (AR v2)
Track 9 accurately ripped (confidence 2) [5BD74786] (AR v2)
Track 10 accurately ripped (confidence 2) [9F882365] (AR v2)
Track 11 accurately ripped (confidence 2) [5D1E2458] (AR v2)
Track 12 accurately ripped (confidence 2) [E5759F5F] (AR v2)
Track 13 accurately ripped (confidence 2) [98129F3A] (AR v2)
Track 14 accurately ripped (confidence 2) [890A839F] (AR v2)
Track 15 accurately ripped (confidence 2) [B08E3D3A] (AR v2)
Track 16 accurately ripped (confidence 2) [FDB08E08] (AR v2)
Track 17 accurately ripped (confidence 2) [B28E85F0] (AR v2)
Track 18 accurately ripped (confidence 2) [BD8350D8] (AR v2)
Track 19 accurately ripped (confidence 2) [C32FF407] (AR v2)
Track 20 accurately ripped (confidence 2) [95E93EF6] (AR v2)
Track 21 accurately ripped (confidence 2) [A7C2BC81] (AR v2)
Track 22 accurately ripped (confidence 2) [DD8897D2] (AR v2)

All tracks accurately ripped

End of status report

==== Log checksum 80E0E07B94DC209245B4D67052AB049C8C45F17C4DB3FA58F4F91460A61B6D2E ====


Exact Audio Copy V1.1 from 23. June 2015

EAC extraction logfile from 5. December 2015, 21:22

Barthold Kuijken, Wielan Kuijken, Robert Kohnen / French and Italian Flute Music - CD2

Used drive : HL-DT-STDVDRAM GU70N Adapter: 1 ID: 0

Read mode : Secure
Utilize accurate stream : Yes
Defeat audio cache : Yes
Make use of C2 pointers : No

Read offset correction : 48
Overread into Lead-In and Lead-Out : No
Fill up missing offset samples with silence : Yes
Delete leading and trailing silent blocks : No
Null samples used in CRC calculations : Yes
Used interface : Native Win32 interface for Win NT & 2000

Used output format : User Defined Encoder
Selected bitrate : 128 kBit/s
Quality : High
Add ID3 tag : No
Command line compressor : C:\Program Files (x86)\Exact Audio Copy\Flac\flac.exe
Additional command line options : -V -8 -T "Date=%year%" -T "Genre=%genre%" %source%


TOC of the extracted CD

Track | Start | Length | Start sector | End sector
––––––––––––––––––––––––––––-
1 | 0:00.33 | 4:45.65 | 33 | 21472
2 | 4:46.23 | 1:52.27 | 21473 | 29899
3 | 6:38.50 | 3:11.65 | 29900 | 44289
4 | 9:50.40 | 1:50.53 | 44290 | 52592
5 | 11:41.18 | 1:44.15 | 52593 | 60407
6 | 13:25.33 | 2:17.60 | 60408 | 70742
7 | 15:43.18 | 1:12.50 | 70743 | 76192
8 | 16:55.68 | 2:28.60 | 76193 | 87352
9 | 19:24.53 | 0:49.00 | 87353 | 91027
10 | 20:13.53 | 4:13.40 | 91028 | 110042
11 | 24:27.18 | 4:53.25 | 110043 | 132042
12 | 29:20.43 | 5:09.40 | 132043 | 155257
13 | 34:30.08 | 3:00.45 | 155258 | 168802
14 | 37:30.53 | 3:11.12 | 168803 | 183139
15 | 40:41.65 | 2:16.55 | 183140 | 193394
16 | 42:58.45 | 2:06.43 | 193395 | 202887
17 | 45:05.13 | 2:25.25 | 202888 | 213787
18 | 47:30.38 | 3:22.30 | 213788 | 228967
19 | 50:52.68 | 1:41.07 | 228968 | 236549
20 | 52:34.00 | 2:09.45 | 236550 | 246269
21 | 54:43.45 | 1:20.60 | 246270 | 252329
22 | 56:04.30 | 1:45.70 | 252330 | 260274
23 | 57:50.25 | 1:22.35 | 260275 | 266459
24 | 59:12.60 | 2:24.40 | 266460 | 277299
25 | 61:37.25 | 3:20.53 | 277300 | 292352
26 | 64:58.03 | 2:30.52 | 292353 | 303654
27 | 67:28.55 | 3:15.50 | 303655 | 318329
28 | 70:44.30 | 4:36.03 | 318330 | 339032


Range status and errors

Selected range

Filename C:\temp\ACC 30009 - French and Italian Flute Music\CD2\French and Italian Flute Music - CD2.wav

Peak level 96.0 %
Extraction speed 2.3 X
Range quality 100.0 %
Test CRC 5AEEBF9F
Copy CRC 5AEEBF9F
Copy OK

No errors occurred


AccurateRip summary

Track 1 accurately ripped (confidence 2) [3964BAAD] (AR v1)
Track 2 accurately ripped (confidence 2) [D4E20FBA] (AR v1)
Track 3 accurately ripped (confidence 2) [CCB0927E] (AR v1)
Track 4 accurately ripped (confidence 2) [3E7D362F] (AR v1)
Track 5 accurately ripped (confidence 2) [0D46F404] (AR v1)
Track 6 accurately ripped (confidence 2) [F3504F78] (AR v1)
Track 7 accurately ripped (confidence 2) [6DC8F340] (AR v1)
Track 8 accurately ripped (confidence 2) [E073B8DE] (AR v1)
Track 9 accurately ripped (confidence 2) [531555F5] (AR v1)
Track 10 accurately ripped (confidence 2) [11FBE6B4] (AR v1)
Track 11 accurately ripped (confidence 2) [6FF17917] (AR v2)
Track 12 accurately ripped (confidence 2) [D49B61AE] (AR v2)
Track 13 accurately ripped (confidence 2) [F1B267CD] (AR v2)
Track 14 accurately ripped (confidence 2) [ED009E25] (AR v2)
Track 15 accurately ripped (confidence 2) [BF1210D3] (AR v2)
Track 16 accurately ripped (confidence 2) [2DA94108] (AR v2)
Track 17 accurately ripped (confidence 2) [7EFD897C] (AR v2)
Track 18 accurately ripped (confidence 2) [A576BCF9] (AR v2)
Track 19 accurately ripped (confidence 2) [29256B2F] (AR v2)
Track 20 accurately ripped (confidence 2) [6D6B1DE0] (AR v2)
Track 21 accurately ripped (confidence 2) [5D69EA21] (AR v2)
Track 22 accurately ripped (confidence 2) [C68BBAF1] (AR v2)
Track 23 accurately ripped (confidence 2) [FCD64026] (AR v2)
Track 24 accurately ripped (confidence 2) [3B737FD8] (AR v2)
Track 25 accurately ripped (confidence 2) [7806CC7C] (AR v2)
Track 26 accurately ripped (confidence 2) [8349CA3D] (AR v2)
Track 27 accurately ripped (confidence 2) [8CCF2328] (AR v2)
Track 28 accurately ripped (confidence 2) [A512CE76] (AR v2)

All tracks accurately ripped

End of status report

==== Log checksum 41B3F5A518E666AC346D56DC96A893176407F3DBF1DABCDC0A8F2411896E2326 ====

Barthold Kuijken, Wieland Kuijken, Robert Kohnen - French and Italian Flute Music of the 18th Century (2007)

Thanks to the original releaser