Tags
Language
Tags

Billie Poole - Confessin' the Blues! (1963) [Reissue 1996] (Re-up)

Posted By: gribovar
Billie Poole - Confessin' the Blues! (1963) [Reissue 1996] (Re-up)

Billie Poole - Confessin' the Blues! (1963) [Reissue 1996]
EAC Rip | FLAC (image+.cue+log) - 243 MB | MP3 CBR 320 kbps (LAME 3.93) - 101 MB | Covers - 5 MB
Genre: Vocal Jazz, Blues | RAR 3% Rec. | Label: OJC/Riverside Records (OJCCD-1886-2 (RLP-9458))

This CD brings back the second of two Riverside albums cut by singer Billie Poole. Other than a single from a few years earlier, the two sets were Poole's entire recording legacy. Poole was an expressive singer who felt most comfortable on blues-oriented material. For this date, she was assisted by an unbeatable rhythm section (guitarist Kenny Burrell, pianist Junior Mance, bassist Bob Cranshaw, and drummer Mickey Roker) and performed mostly vintage material, with a few more recent songs added for variety. Poole sounds fine on such tunes as "Confessin' the Blues," "Stormy Weather," "Alone Together," and even "God Bless the Child."
Tracklist:
01. Confessin' the Blues
02. Them Blues
03. God Bless the Child
04. I Worry 'Bout You
05. Jailhouse Blues
06. Stormy Weather
07. The Man That Got Away
08. Keep Your Hand on Your Heart
09. Ain't That Love
10. Alone Together
11. When Your Well Runs Dry
12. Stormy Monday

Total time: 43:02

Exact Audio Copy V0.99 prebeta 4 from 23. January 2008

EAC extraction logfile from 12. February 2008, 16:28

Billie Poole / Confessin' the Blues

Used drive : LITE-ON CD-ROM LTN-527T Adapter: 1 ID: 1

Read mode : Secure
Utilize accurate stream : Yes
Defeat audio cache : Yes
Make use of C2 pointers : No

Read offset correction : 12
Overread into Lead-In and Lead-Out : Yes
Fill up missing offset samples with silence : Yes
Delete leading and trailing silent blocks : No
Null samples used in CRC calculations : Yes
Used interface : Installed external ASPI interface

Used output format : User Defined Encoder
Selected bitrate : 320 kBit/s
Quality : High
Add ID3 tag : No
Command line compressor : C:\Program Files\FLAC\flac.exe
Additional command line options : -V -8 -T "artist=%a" -T "title=%t" -T "album=%g" -T "date=%y" -T "tracknumber=%n" -T "genre=%m" %s


TOC of the extracted CD

Track | Start | Length | Start sector | End sector
––––––––––––––––––––––––––––-
1 | 0:00.00 | 3:37.10 | 0 | 16284
2 | 3:37.10 | 2:10.05 | 16285 | 26039
3 | 5:47.15 | 3:53.20 | 26040 | 43534
4 | 9:40.35 | 3:23.60 | 43535 | 58819
5 | 13:04.20 | 3:45.60 | 58820 | 75754
6 | 16:50.05 | 4:29.35 | 75755 | 95964
7 | 21:19.40 | 4:52.52 | 95965 | 117916
8 | 26:12.17 | 3:31.03 | 117917 | 133744
9 | 29:43.20 | 3:50.02 | 133745 | 150996
10 | 33:33.22 | 2:38.20 | 150997 | 162866
11 | 36:11.42 | 2:49.65 | 162867 | 175606
12 | 39:01.32 | 4:00.53 | 175607 | 193659


Range status and errors

Selected range

Filename D:\WinRar\Billie Poole - Confessin' The Blues (1962 OJC)[FLAC Full Scans]\Billie Poole - Confessin' the Blues.wav

Peak level 100.0 %
Range quality 99.9 %
Test CRC 43420658
Copy CRC 43420658
Copy OK

No errors occurred


AccurateRip summary

Track 1 not present in database
Track 2 not present in database
Track 3 not present in database
Track 4 not present in database
Track 5 not present in database
Track 6 not present in database
Track 7 not present in database
Track 8 not present in database
Track 9 not present in database
Track 10 not present in database
Track 11 not present in database
Track 12 not present in database

None of the tracks are present in the AccurateRip database

End of status report

[CUETools log; Date: 27.11.2021 12:12:08; Version: 2.1.4]
[CTDB TOCID: pYMoQ6MVogn_tC0iPFNoLxUTY0Q-] found.
Track | CTDB Status
1 | (7/7) Accurately ripped
2 | (7/7) Accurately ripped
3 | (7/7) Accurately ripped
4 | (7/7) Accurately ripped
5 | (7/7) Accurately ripped
6 | (7/7) Accurately ripped
7 | (7/7) Accurately ripped
8 | (7/7) Accurately ripped
9 | (7/7) Accurately ripped
10 | (7/7) Accurately ripped
11 | (7/7) Accurately ripped
12 | (7/7) Accurately ripped
[AccurateRip ID: 00131779-00b3ba44-990a160c] found.
Track [ CRC | V2 ] Status
01 [3e866b42|baa6193f] (0+4/6) Accurately ripped
02 [c76106fb|fe503c28] (0+4/6) Accurately ripped
03 [4f70b088|02f34127] (0+4/6) Accurately ripped
04 [aeb82d42|fe8600a8] (0+4/6) Accurately ripped
05 [553d33c2|c5ed189e] (0+4/6) Accurately ripped
06 [042bd9cb|75dc4b6a] (0+4/6) Accurately ripped
07 [5e52c4e1|a1a58083] (0+4/6) Accurately ripped
08 [5e574ed6|98d0da0f] (0+4/6) Accurately ripped
09 [7d8496b6|2a2545e3] (0+4/6) Accurately ripped
10 [346d605f|e90d9278] (0+4/6) Accurately ripped
11 [bdb679a3|5ac459ad] (0+4/6) Accurately ripped
12 [ce519b93|9b37a940] (0+4/6) Accurately ripped
Offsetted by -664:
01 [878150a2] (0/6) No match (V2 was not tested)
02 [687e1943] (0/6) No match (V2 was not tested)
03 [1fa05ba0] (0/6) No match (V2 was not tested)
04 [84a9d35a] (0/6) No match (V2 was not tested)
05 [37a91882] (0/6) No match (V2 was not tested)
06 [ceb3d5a3] (0/6) No match (V2 was not tested)
07 [83faa019] (0/6) No match (V2 was not tested)
08 [5f854e36] (0/6) No match (V2 was not tested)
09 [4ff84b66] (0/6) No match (V2 was not tested)
10 [da18637f] (0/6) No match (V2 was not tested)
11 [671039bb] (0/6) No match (V2 was not tested)
12 [d3de0633] (0/6) No match (V2 was not tested)

Track Peak [ CRC32 ] [W/O NULL] [ LOG ]
– 100,0 [43420658] [46D28B3B] CRC32
01 100,0 [D6DA09C0] [50CCE00F]
02 100,0 [ADB830E4] [99B6B2A0]
03 73,7 [9A39DB7C] [4B62ADBB]
04 99,9 [EB2A4C70] [9DC59ABD]
05 100,0 [54F566AC] [ABCFDA06]
06 75,9 [DF2B7639] [69520AFC]
07 100,0 [FC663295] [527CD209]
08 99,9 [E32521B6] [18FF1818]
09 100,0 [DF25CE92] [7A3E1C19]
10 99,9 [969AFD76] [9F98D817]
11 100,0 [40D03648] [3EFAD606]
12 97,6 [AF8E7E32] [22102327]

Thanks to Mazeppa