Tags
Language
Tags

Billion Dollar Babies - Battle Axe (1977) Re-up

Posted By: v3122
Billion Dollar Babies - Battle Axe (1977) Re-up

Billion Dollar Babies - Battle Axe (1977)
EAC | Flac(Image) + Cue + Log) & MP3 CBR 320Kbps
2004 | Cum'On Everybody Records, COE-190 | ~ 260 or 106 Mb | Scans
Hard Rock / Glam Rock

The original Alice Cooper band broke up in 1974 after releasing seven great albums. The lead singer Vincent Furnier started his remarkable solo career in 1975 and he adopted Alice Cooper as his name. In 1977, three former members of the Alice Cooper band formed a band called Billion Dollar Babies. Michael Bruce, Dennis Dunaway and Neal Smith from the original Cooper band teamed up with the guitarist Mike Marconi and the keyboardist Bob Dolin, who had already played with Alice Cooper in their 1974 album Muscle of Love. The band borrowed their name from the very succesful 1973 album of Alice Cooper, Billion Dollar Babies. They released only one studio album and it was called Battle Axe.

This album is quite interesting for those who love the original Alice Cooper band. In my opinion, two songs really stand out in here. Those are "I Miss You" and the awesome title cut "Battle Axe". "I Miss You" is very interesting because Alice Cooper covered the song in the late 70's and the original version of the song is on this album. Rest of the songs are good and Ok stuff, but not so very special or great. Just typical rockers which aren't great, but not bad either. Overall this album is good, but it also seems that the remaining members of the Alice Cooper band were desperately trying to get back to the spotlight.

by CooperBolan, rateyourmusic
Billion Dollar Babies - Battle Axe (1977):

Billion Dollar Babies - Battle Axe (1977) Re-up

Tracklist:

01. Too Young 03:17
02. Shine Your Love 03:05
03. I Miss You 03:26
04. Wasn't I The One 04:28
05. Love Is Rather Blind 03:28
06. Rock n' Roll Radio 02:38
07. Dance With Me 03:00
08. Rock Me Slowly 03:43
09. Ego Mania 02:24
10. Battle Axe (Sudden Death) 04:03
11. Winner 05:20

Exact Audio Copy V1.0 beta 3 from 29. August 2011

EAC extraction logfile from 7. December 2013, 17:02

Billion Dollar Babies / Battle Axe

Used drive : Optiarc DVD RW AD-5280S Adapter: 2 ID: 2

Read mode : Secure
Utilize accurate stream : Yes
Defeat audio cache : Yes
Make use of C2 pointers : No

Read offset correction : 48
Overread into Lead-In and Lead-Out : No
Fill up missing offset samples with silence : Yes
Delete leading and trailing silent blocks : No
Null samples used in CRC calculations : Yes
Used interface : Installed external ASPI interface

Used output format : User Defined Encoder
Selected bitrate : 768 kBit/s
Quality : High
Add ID3 tag : No
Command line compressor : F:\Program Files\Exact Audio Copy\Flac\flac.exe
Additional command line options : -V -8 -T "Date=%year%" -T "Genre=%genre%" %source%


TOC of the extracted CD

Track | Start | Length | Start sector | End sector
––––––––––––––––––––––––––––-
1 | 0:00.00 | 3:17.40 | 0 | 14814
2 | 3:17.40 | 3:05.60 | 14815 | 28749
3 | 6:23.25 | 3:26.36 | 28750 | 44235
4 | 9:49.61 | 4:28.37 | 44236 | 64372
5 | 14:18.23 | 3:28.19 | 64373 | 79991
6 | 17:46.42 | 2:38.02 | 79992 | 91843
7 | 20:24.44 | 3:00.10 | 91844 | 105353
8 | 23:24.54 | 3:43.68 | 105354 | 122146
9 | 27:08.47 | 2:24.27 | 122147 | 132973
10 | 29:32.74 | 4:03.25 | 132974 | 151223
11 | 33:36.24 | 5:20.12 | 151224 | 175235


Range status and errors

Selected range

Filename D:\Sket4er\Billion Dollar Babies - Battle Axe (1977) 2004 [flac]\Billion Dollar Babies - Battle Axe.wav

Peak level 89.1 %
Extraction speed 7.4 X
Range quality 100.0 %
Test CRC 6F547EC0
Copy CRC 6F547EC0
Copy OK

No errors occurred


AccurateRip summary

Track 1 not present in database
Track 2 not present in database
Track 3 not present in database
Track 4 not present in database
Track 5 not present in database
Track 6 not present in database
Track 7 not present in database
Track 8 not present in database
Track 9 not present in database
Track 10 not present in database
Track 11 not present in database

None of the tracks are present in the AccurateRip database

End of status report

foobar2000 1.2.9 / Dynamic Range Meter 1.1.1
log date: 2013-12-14 15:08:43

––––––––––––––––––––––––––––––––––––––––
Analyzed: Billion Dollar Babies / Battle Axe
––––––––––––––––––––––––––––––––––––––––

DR Peak RMS Duration Track
––––––––––––––––––––––––––––––––––––––––
DR13 -3.46 dB -18.91 dB 3:18 01-Too Young
DR13 -3.99 dB -19.18 dB 3:06 02-Shine Your Love
DR13 -4.14 dB -19.20 dB 3:26 03-I Miss You
DR13 -1.00 dB -17.09 dB 4:28 04-Wasn't I The One
DR13 -2.30 dB -17.61 dB 3:28 05-Love Is Rather Blind
DR13 -2.77 dB -18.16 dB 2:38 06-Rock n' Roll Radio
DR12 -5.04 dB -18.96 dB 3:00 07-Dance With Me
DR14 -1.52 dB -17.96 dB 3:44 08-Rock Me Slowly
DR13 -4.04 dB -19.61 dB 2:24 09- Ego Mania
DR13 -2.36 dB -18.44 dB 4:03 10- Battle Axe (Sudden Death)
DR13 -3.49 dB -18.79 dB 5:20 11-Winner
––––––––––––––––––––––––––––––––––––––––

Number of tracks: 11
Official DR value: DR13

Samplerate: 44100 Hz
Channels: 2
Bits per sample: 16
Bitrate: 863 kbps
Codec: FLAC

Billion Dollar Babies - Battle Axe (1977) Re-up

Musicians:

Michael Bruce - Guitar, Vocals
Bob Dolin - Keyboards
Dennis Dunaway - Bass
Mike Marconi - Guitar, Vocals
Neal Smith - Drums

Billion Dollar Babies - Battle Axe (1977) Re-up

All thanks go to Sket4er

Download Billion Dollar Babies - Battle Axe (1977):