Subcategories

Bix Beiderbecke - Bixology (1990)

Posted By: gribovar
Bix Beiderbecke - Bixology (1990)

Bix Beiderbecke - Bixology (1990)
EAC Rip | FLAC (image+.cue+log) - 330 MB | MP3 CBR 320 kbps (LAME 3.93) - 186 MB | Covers (13 MB) included
Genre: Jazz, Dixieland | RAR 3% Rec. | Label: Giants Of Jazz (CD 53017)

Bixology is the alternate title of Bix Beiderbecke's piano-composed etude, "In a Mist." In the wonderful world of reissued classic jazz, Bixology is also a logical choice for the title of a Beiderbecke anthology. Indeed there are several on the market that share this heading. Issued in 1990, the Giants of Jazz Bixology is a haphazard grab bag of 25 recordings culled from Beiderbecke's all-too-brief career. Opening with the fabulous "Jazz Me Blues" as played by the Wolverines on February 18, 1924, this overview skims through some of the records Beiderbecke made in cahoots with his C melody saxophone-toting friend Frankie Trumbauer, tosses in "Trumbology" which is a spotlight feature for Trumbauer (and not Beiderbecke); touches upon Beiderbecke's magnum opus the "Davenport Blues," and stumbles over several more Wolverines sides as if accidentally or unconsciously treading a path already trodden. The producers then saw fit to sample the sounds of Beiderbecke with the Jean Goldkette Orchestra, dole out a few more examples of Beiderbecke as a leader and finish off with "Bessie Couldn't Help It," a twilight offering from the ailing alcoholic cornetist who sat in with Hoagy Carmichael's group on September 15, 1930.
Tracklist:
01. Jazz Me Blues
02. At the Jazz Band Ball
03. Royal Garden Blues
04. Sorry
05. Singin' the Blues
06. I'm Coming Virginia
07. Way Down Yonder in New Orleans
08. For No Reason At All In 'C'
09. Goose Pimples
10. Trumbology
11. Ostrich Walk
12. Riverboat Shuffle
13. Davenport Blues
14. Copenhagen
15. Fidgety Feet
16. Tiger Rag
17. In a Mist (Bixology)
18. Clementine
19. Thou Swell
20. Ol' Man River
21. Wa-Da-Da (Ev'rybody's Doin' It Now)
22. Louisiana
23. Margie
24. I'll Be A Friend With Pleasure
25. Bessie Couldn't Help It

Total time: 01:13:23

Exact Audio Copy V0.99 prebeta 4 from 23. January 2008

EAC extraction logfile from 18. March 2009, 21:39

Bix Beiderbecke / Bixology

Used drive : PIONEER DVD-RW DVR-111D Adapter: 1 ID: 0

Read mode : Secure
Utilize accurate stream : Yes
Defeat audio cache : Yes
Make use of C2 pointers : No

Read offset correction : 48
Overread into Lead-In and Lead-Out : No
Fill up missing offset samples with silence : Yes
Delete leading and trailing silent blocks : No
Null samples used in CRC calculations : Yes
Used interface : Native Win32 interface for Win NT & 2000

Used output format : Internal WAV Routines
Sample format : 44.100 Hz; 16 Bit; Stereo


TOC of the extracted CD

Track | Start | Length | Start sector | End sector
––––––––––––––––––––––––––––-
1 | 0:00.33 | 3:03.40 | 33 | 13797
2 | 3:03.73 | 2:51.67 | 13798 | 26689
3 | 5:55.65 | 3:01.45 | 26690 | 40309
4 | 8:57.35 | 2:54.25 | 40310 | 53384
5 | 11:51.60 | 2:56.63 | 53385 | 66647
6 | 14:48.48 | 3:09.25 | 66648 | 80847
7 | 17:57.73 | 2:52.12 | 80848 | 93759
8 | 20:50.10 | 3:03.23 | 93760 | 107507
9 | 23:53.33 | 3:17.62 | 107508 | 122344
10 | 27:11.20 | 3:02.08 | 122345 | 136002
11 | 30:13.28 | 3:07.72 | 136003 | 150099
12 | 33:21.25 | 3:10.23 | 150100 | 164372
13 | 36:31.48 | 2:49.57 | 164373 | 177104
14 | 39:21.30 | 2:27.73 | 177105 | 188202
15 | 41:49.28 | 2:19.00 | 188203 | 198627
16 | 44:08.28 | 2:33.00 | 198628 | 210102
17 | 46:41.28 | 2:43.32 | 210103 | 222359
18 | 49:24.60 | 3:01.00 | 222360 | 235934
19 | 52:25.60 | 2:59.65 | 235935 | 249424
20 | 55:25.50 | 3:06.23 | 249425 | 263397
21 | 58:31.73 | 3:02.45 | 263398 | 277092
22 | 61:34.43 | 2:50.22 | 277093 | 289864
23 | 64:24.65 | 2:55.65 | 289865 | 303054
24 | 67:20.55 | 3:04.28 | 303055 | 316882
25 | 70:25.08 | 2:57.32 | 316883 | 330189


Range status and errors

Selected range

Filename D:\!CD\new SCANs\53017\Bix Beiderbecke - Bixology.wav

Peak level 88.3 %
Range quality 100.0 %
Test CRC 475A4297
Copy CRC 475A4297
Copy OK

No errors occurred


AccurateRip summary

Track 1 accurately ripped (confidence 2) [5A0E0550]
Track 2 accurately ripped (confidence 2) [62FCDD1C]
Track 3 accurately ripped (confidence 2) [DD1ADCF7]
Track 4 accurately ripped (confidence 2) [EF90304A]
Track 5 accurately ripped (confidence 2) [0FF96D42]
Track 6 accurately ripped (confidence 2) [286C2859]
Track 7 accurately ripped (confidence 2) [1A85C700]
Track 8 accurately ripped (confidence 2) [04DA0D3D]
Track 9 accurately ripped (confidence 2) [84229DAF]
Track 10 accurately ripped (confidence 2) [27EA51EE]
Track 11 accurately ripped (confidence 2) [9E84B3DA]
Track 12 accurately ripped (confidence 2) [839CCC93]
Track 13 accurately ripped (confidence 2) [9EA7CE69]
Track 14 accurately ripped (confidence 2) [70AB27E1]
Track 15 accurately ripped (confidence 2) [92397217]
Track 16 accurately ripped (confidence 2) [3D90380A]
Track 17 accurately ripped (confidence 2) [F67FA41C]
Track 18 accurately ripped (confidence 2) [B2A4C627]
Track 19 accurately ripped (confidence 2) [A7526B51]
Track 20 accurately ripped (confidence 2) [BFA256F0]
Track 21 accurately ripped (confidence 2) [0D53B61D]
Track 22 accurately ripped (confidence 2) [7A1E690D]
Track 23 accurately ripped (confidence 2) [4F366623]
Track 24 accurately ripped (confidence 2) [D12038AF]
Track 25 accurately ripped (confidence 2) [75AFE4C9]

All tracks accurately ripped

End of status report

[CUETools log; Date: 27.01.2018 20:19:55; Version: 2.1.4]
Pregap length 00:00:33.
[CTDB TOCID: vpN9aLo5h1j23Xb.P9TjhIITz2A-] found.
Track | CTDB Status
1 | (15/15) Accurately ripped
2 | (15/15) Accurately ripped
3 | (15/15) Accurately ripped
4 | (15/15) Accurately ripped
5 | (14/15) Accurately ripped
6 | (14/15) Accurately ripped
7 | (14/15) Accurately ripped
8 | (15/15) Accurately ripped
9 | (15/15) Accurately ripped
10 | (15/15) Accurately ripped
11 | (15/15) Accurately ripped
12 | (15/15) Accurately ripped
13 | (14/15) Accurately ripped
14 | (14/15) Accurately ripped
15 | (15/15) Accurately ripped
16 | (15/15) Accurately ripped
17 | (15/15) Accurately ripped
18 | (15/15) Accurately ripped
19 | (14/15) Accurately ripped
20 | (14/15) Accurately ripped
21 | (15/15) Accurately ripped
22 | (15/15) Accurately ripped
23 | (15/15) Accurately ripped
24 | (15/15) Accurately ripped
25 | ( 8/15) Accurately ripped, or (6/15) differs in 8 samples @02:39:22-02:39:23
[AccurateRip ID: 0041e35c-049e36bd-5f113219] found.
Track [ CRC | V2 ] Status
01 [5a0e0550|d9286956] (02+00/14) Accurately ripped
02 [62fcdd1c|add93b86] (02+00/14) Accurately ripped
03 [dd1adcf7|fe98c714] (02+00/13) Accurately ripped
04 [ef90304a|a9c69f53] (02+00/14) Accurately ripped
05 [0ff96d42|5bca7534] (02+00/13) Accurately ripped
06 [286c2859|e6335822] (02+00/12) Accurately ripped
07 [1a85c700|7eea1282] (02+00/13) Accurately ripped
08 [04da0d3d|1bc19921] (02+00/13) Accurately ripped
09 [84229daf|970628d2] (02+00/13) Accurately ripped
10 [27ea51ee|69a77b85] (02+00/12) Accurately ripped
11 [9e84b3da|e37d0ac8] (02+00/14) Accurately ripped
12 [839ccc93|a4244cc1] (02+00/14) Accurately ripped
13 [9ea7ce69|730947df] (02+00/13) Accurately ripped
14 [70ab27e1|3dc52497] (02+00/13) Accurately ripped
15 [92397217|940634d6] (02+00/14) Accurately ripped
16 [3d90380a|861d71b8] (02+00/14) Accurately ripped
17 [f67fa41c|34f209b9] (02+00/14) Accurately ripped
18 [b2a4c627|318c5de2] (02+00/14) Accurately ripped
19 [a7526b51|23ffc0fa] (02+00/13) Accurately ripped
20 [bfa256f0|6661bb30] (02+00/12) Accurately ripped
21 [0d53b61d|432a6b0b] (02+00/14) Accurately ripped
22 [7a1e690d|e7430d18] (02+00/14) Accurately ripped
23 [4f366623|3a98192a] (02+00/13) Accurately ripped
24 [d12038af|0971f7e7] (02+00/13) Accurately ripped
25 [75afe4c9|6f03bb6e] (02+00/12) Accurately ripped
Offsetted by 835:
01 [8439bd34] (08/14) Accurately ripped
02 [bbdb48d0] (08/14) Accurately ripped
03 [47c7af5c] (07/13) Accurately ripped
04 [309e9aa8] (08/14) Accurately ripped
05 [0ee7e46e] (08/13) Accurately ripped
06 [fdf2d596] (07/12) Accurately ripped
07 [b7daa0bb] (08/13) Accurately ripped
08 [2a96f58c] (07/13) Accurately ripped
09 [6723d8be] (08/13) Accurately ripped
10 [0a46692c] (07/12) Accurately ripped
11 [ef032a16] (08/14) Accurately ripped
12 [002bafe7] (08/14) Accurately ripped
13 [9d1579cb] (08/13) Accurately ripped
14 [f532bf02] (08/13) Accurately ripped
15 [0239916c] (08/14) Accurately ripped
16 [d3132afd] (08/14) Accurately ripped
17 [abc157c6] (08/14) Accurately ripped
18 [311c21c6] (08/14) Accurately ripped
19 [8a801f5b] (08/13) Accurately ripped
20 [9a7cbad1] (07/12) Accurately ripped
21 [aa28c2e5] (08/14) Accurately ripped
22 [ab8a8ad1] (08/14) Accurately ripped
23 [0005245b] (07/13) Accurately ripped
24 [e2c85f09] (07/13) Accurately ripped
25 [ea369585] (00/12) No match (V2 was not tested)

Track Peak [ CRC32 ] [W/O NULL] [ LOG ]
– 88,3 [475A4297] [761307AA] CRC32
01 78,8 [A78DC6E4] [5E299CB8]
02 70,6 [7D1DCBE3] [7EE9527E]
03 74,6 [F84C0EB6] [BF00492F]
04 72,5 [0ED428CB] [9D8CB113]
05 65,1 [8F9E52A8] [123CF8B3]
06 67,0 [14D77117] [B1967C1E]
07 81,5 [E2E58FEB] [04526152]
08 68,8 [8E1D2C93] [EE26889D]
09 71,0 [7B0EF63A] [092CF385]
10 73,6 [42F82F4F] [9ECC1F3D]
11 73,7 [C5AA1DEA] [42455FA7]
12 78,3 [1C994AD4] [76B23965]
13 76,4 [FE56D749] [EA5FD4EB]
14 74,0 [C646B8A1] [2F213BA1]
15 76,1 [46E9FDE3] [32F57598]
16 76,1 [B5E19C9B] [B70E6BAC]
17 82,7 [603F4983] [875F383E]
18 83,5 [E43C6AFC] [CC6897CD]
19 76,5 [61A58EAC] [99473820]
20 77,7 [117C94C2] [CEDD8D58]
21 79,9 [BDFE9CB8] [A5732142]
22 83,7 [78800BE9] [CEE410CE]
23 83,1 [DDEBED5D] [D2802241]
24 88,3 [4B52C3BC] [3B5879E2]
25 72,0 [C7A510CA] [D9590658]

Thanks to the original releaser