Subcategories

Bob Dylan - Live In San Diego (2017)

Posted By: SERTiL
Bob Dylan - Live In San Diego (2017)

Bob Dylan - Live In San Diego
XLD Rip | FLAC (tracks)+cue, log, front cover | 99:07 min | 298 MB
Label: Columbia – 88985479332 | Tracks: 19 | Rls.date: 2017
Folk Rock, Singer-Songwriter

Exclusive bonus CD from BobDylan.com. Recorded live November 28, 1979 at Golden Hall, San Diego, CA (except *November 27, 1979)

San Diego '79 is missing the opening act by Dylan's gospel chorus. These four girls – including Clydie King, Regina McCreary, Helena Springs and Monalisa Young– bravely faced a skeptical and sometimes hostile audience every night, singing six gospel songs that set the keynote and the atmosphere for the evening:

If I've Got My Ticket, Lord
It's Gonna Rain
Look Up And Live By Faith
Hold My Hand, Oh Lord
Oh Freedom
This Train Is Bound For Glory

Their set required some dramatic acting beyond mere singing, and they worked hard at it. They were absolutely wonderful, and a lasting memory for the many thousands who attended these concerts. It's nothing short of an artistic crime that their opening set is nowhere to be found on Trouble No More. It astonishes me that they've been given such short shrift.

San Diego '79 has been thoroughly pruned of Dylan's raps and preaching. There were a few brief interactions and two extended raps. His onstage remarks charge the concert with a sense of urgency. Without them, a larger context and a motivation is missing. Removing Dylan's remarks diminishes the feeling of risk and high stakes of the performance. It was no minor thing, Dylan's preaching. Omitting them is a serious error in judgment.

As an aside, Dylan was a more intense, involved, committed and driven preacher than Michael Shannon. Shannon doesn't have that live current of inspiration coursing through his veins. He doesn't provoke or challenge. Shannon's an excellent actor and no doubt the best choice for the job, but he's no Dylan.

Aside from that, the San Diego performance is outstanding and memorable. Everybody clicks in perfect unison. They achieve spontaneity. Dylan's vocal is among his finest; these are definitive performances of these songs. It's the best concert performance to find its way on disc since the '66 shows, and that's not saying a little. I thought the cassette tape recorded at the mixing board would have more range, but the fidelity is quite excellent for what it is. I thought the brightness and alchemy of "Man Gave Names to All the Animals" is not captured on the tape. Somehow, the line recording makes the concert sound smaller. The voice doesn't quite fill the room or inhabit your head like being there does. It has a different feel than the audience tapes. More audience presence and participation as captured on the crappy audience tapes relate to the timing and delivery of Dylan's and the band's performance. Perhaps it's a good thing that the audience is dialed down, I don't know.

Tracklist:

Disc 1
01 Gotta Serve Somebody
02 I Believe In You
03 When You Gonna Wake Up?
04 When He Returns
05 Man Gave Names To All The Animals
06 Precious Angel
07 Slow Train
08 Covenant Woman

X Lossless Decoder version 20170729 (150.3)

XLD extraction logfile from 2017-11-06 07:32:33 -0800

Bob Dylan / Live In San Diego Disc 1

Used drive : HL-DT-ST DVDRW GX50N (revision RR06)
Media type : Pressed CD

Ripper mode : XLD Secure Ripper
Disable audio cache : OK for the drive with a cache less than 1375KiB
Make use of C2 pointers : NO
Read offset correction : 6
Max retry count : 100
Gap status : Analyzed, Appended

TOC of the extracted CD
Track | Start | Length | Start sector | End sector
––––––––––––––––––––––––––––-
1 | 00:00:00 | 06:50:21 | 0 | 30770
2 | 06:50:21 | 04:46:03 | 30771 | 52223
3 | 11:36:24 | 05:45:21 | 52224 | 78119
4 | 17:21:45 | 05:02:57 | 78120 | 100826
5 | 22:24:27 | 05:29:58 | 100827 | 125559
6 | 27:54:10 | 05:43:47 | 125560 | 151331
7 | 33:37:57 | 06:38:54 | 151332 | 181235
8 | 40:16:36 | 05:51:20 | 181236 | 207580

AccurateRip Summary
Disc not found in AccurateRip DB.

All Tracks
Album gain : -5.14 dB
Peak : 0.934814
Statistics
Read error : 0
Jitter error (maybe fixed) : 0
Retry sector count : 0
Damaged sector count : 0

Track 01
Filename : /Volumes/Music Library HD/Bob Dylan - Live In San Diego Disc 1 (2017) [FLAC]/01 Gotta Serve Somebody.flac
Pre-gap length : 00:02:00

Track gain : -5.50 dB
Peak : 0.913147
CRC32 hash (test run) : C040CD12
CRC32 hash : C040CD12
CRC32 hash (skip zero) : 9A7B0C74
AccurateRip v1 signature : A0CDD69E
AccurateRip v2 signature : CBBFEEA5
->Track not present in AccurateRip database.
Statistics
Read error : 0
Jitter error (maybe fixed) : 0
Retry sector count : 0
Damaged sector count : 0

Track 02
Filename : /Volumes/Music Library HD/Bob Dylan - Live In San Diego Disc 1 (2017) [FLAC]/02 I Believe In You.flac

Track gain : -2.39 dB
Peak : 0.732117
CRC32 hash (test run) : 4A30B24F
CRC32 hash : 4A30B24F
CRC32 hash (skip zero) : 23CE8764
AccurateRip v1 signature : 17E6F039
AccurateRip v2 signature : D50A34D3
->Track not present in AccurateRip database.
Statistics
Read error : 0
Jitter error (maybe fixed) : 0
Retry sector count : 0
Damaged sector count : 0

Track 03
Filename : /Volumes/Music Library HD/Bob Dylan - Live In San Diego Disc 1 (2017) [FLAC]/03 When You Gonna Wake Up?.flac

Track gain : -7.07 dB
Peak : 0.919220
CRC32 hash (test run) : 4B307190
CRC32 hash : 4B307190
CRC32 hash (skip zero) : A8B379A0
AccurateRip v1 signature : 60121701
AccurateRip v2 signature : 10C0FD16
->Track not present in AccurateRip database.
Statistics
Read error : 0
Jitter error (maybe fixed) : 0
Retry sector count : 0
Damaged sector count : 0

Track 04
Filename : /Volumes/Music Library HD/Bob Dylan - Live In San Diego Disc 1 (2017) [FLAC]/04 When He Returns.flac

Track gain : 0.57 dB
Peak : 0.583984
CRC32 hash (test run) : C54D52CF
CRC32 hash : C54D52CF
CRC32 hash (skip zero) : A296D3CB
AccurateRip v1 signature : A758F4EC
AccurateRip v2 signature : D167E670
->Track not present in AccurateRip database.
Statistics
Read error : 0
Jitter error (maybe fixed) : 0
Retry sector count : 0
Damaged sector count : 0

Track 05
Filename : /Volumes/Music Library HD/Bob Dylan - Live In San Diego Disc 1 (2017) [FLAC]/05 Man Gave Names To All The Animals.flac

Track gain : -0.89 dB
Peak : 0.885986
CRC32 hash (test run) : 3F4F48E5
CRC32 hash : 3F4F48E5
CRC32 hash (skip zero) : 4D030B9A
AccurateRip v1 signature : B2B91975
AccurateRip v2 signature : E47CE26F
->Track not present in AccurateRip database.
Statistics
Read error : 0
Jitter error (maybe fixed) : 0
Retry sector count : 0
Damaged sector count : 0

Track 06
Filename : /Volumes/Music Library HD/Bob Dylan - Live In San Diego Disc 1 (2017) [FLAC]/06 Precious Angel.flac

Track gain : -5.13 dB
Peak : 0.899750
CRC32 hash (test run) : 3712F5AB
CRC32 hash : 3712F5AB
CRC32 hash (skip zero) : AE5E3AD5
AccurateRip v1 signature : E43AB5D0
AccurateRip v2 signature : A54F8591
->Track not present in AccurateRip database.
Statistics
Read error : 0
Jitter error (maybe fixed) : 0
Retry sector count : 0
Damaged sector count : 0

Track 07
Filename : /Volumes/Music Library HD/Bob Dylan - Live In San Diego Disc 1 (2017) [FLAC]/07 Slow Train.flac

Track gain : -6.04 dB
Peak : 0.923309
CRC32 hash (test run) : 90E5DC5F
CRC32 hash : 90E5DC5F
CRC32 hash (skip zero) : 33BFC085
AccurateRip v1 signature : 4327A68C
AccurateRip v2 signature : F4884E5C
->Track not present in AccurateRip database.
Statistics
Read error : 0
Jitter error (maybe fixed) : 0
Retry sector count : 0
Damaged sector count : 0

Track 08
Filename : /Volumes/Music Library HD/Bob Dylan - Live In San Diego Disc 1 (2017) [FLAC]/08 Covenant Woman.flac

Track gain : -2.63 dB
Peak : 0.934814
CRC32 hash (test run) : 55D18088
CRC32 hash : 55D18088
CRC32 hash (skip zero) : ED6731ED
AccurateRip v1 signature : 8747F1F0
AccurateRip v2 signature : 47B40524
->Track not present in AccurateRip database.
Statistics
Read error : 0
Jitter error (maybe fixed) : 0
Retry sector count : 0
Damaged sector count : 0

No errors occurred

End of status report

––-BEGIN XLD SIGNATURE––-
o_dowPqWVwzFGPVkQqZuu3jk1uVnDuP2Q_p0GeR4a2CAILh357FPjHhWhfKjQkRUsmmLxDPqqYKYP2QdaP7Kaau1jeBlXRkQJfTyD6K
––-END XLD SIGNATURE––-


Disc 2
01 Gonna Change My Way Of Thinking
02 Do Right To Me Baby (Do Unto Others)
03 Solid Rock
04 Saving Grace
05 Saved
06 What Can I Do For You?
07 In The Garden*
08 Band Introduction*
09 Blessed Be The Name
10 Pressing On
11 In The Garden [Incomplete]

X Lossless Decoder version 20170729 (150.3)

XLD extraction logfile from 2017-11-06 08:11:29 -0800

Bob Dylan / Live in San Diego Disc 2

Used drive : HL-DT-ST DVDRW GX50N (revision RR06)
Media type : Pressed CD

Ripper mode : XLD Secure Ripper
Disable audio cache : OK for the drive with a cache less than 1375KiB
Make use of C2 pointers : NO
Read offset correction : 6
Max retry count : 100
Gap status : Analyzed, Appended

TOC of the extracted CD
Track | Start | Length | Start sector | End sector
––––––––––––––––––––––––––––-
1 | 00:00:00 | 05:03:33 | 0 | 22757
2 | 05:03:33 | 04:29:60 | 22758 | 42992
3 | 09:33:18 | 04:29:10 | 42993 | 63177
4 | 14:02:28 | 04:46:12 | 63178 | 84639
5 | 18:48:40 | 04:30:61 | 84640 | 104950
6 | 23:19:26 | 05:52:00 | 104951 | 131350
7 | 29:11:26 | 06:26:53 | 131351 | 160353
8 | 35:38:04 | 01:01:65 | 160354 | 164993
9 | 36:39:69 | 03:45:30 | 164994 | 181898
10 | 40:25:24 | 06:31:15 | 181899 | 211238
11 | 46:56:39 | 06:11:61 | 211239 | 239124

AccurateRip Summary
Disc not found in AccurateRip DB.

All Tracks
Album gain : -7.05 dB
Peak : 0.959656
Statistics
Read error : 0
Jitter error (maybe fixed) : 0
Retry sector count : 0
Damaged sector count : 0

Track 01
Filename : /Volumes/Music Library HD/Bob Dylan - Live in San Diego Disc 2 (2017) [FLAC]/01 Gonna Change My Way Of Thinking.flac
Pre-gap length : 00:02:00

Track gain : -6.99 dB
Peak : 0.922424
CRC32 hash (test run) : 669D67A8
CRC32 hash : 669D67A8
CRC32 hash (skip zero) : 7BBE2D3E
AccurateRip v1 signature : E7C93DDF
AccurateRip v2 signature : 3E89157A
->Track not present in AccurateRip database.
Statistics
Read error : 0
Jitter error (maybe fixed) : 0
Retry sector count : 0
Damaged sector count : 0

Track 02
Filename : /Volumes/Music Library HD/Bob Dylan - Live in San Diego Disc 2 (2017) [FLAC]/02 Do Right To Me Baby (Do Unto Others).flac

Track gain : -2.64 dB
Peak : 0.785522
CRC32 hash (test run) : 6A93D4B2
CRC32 hash : 6A93D4B2
CRC32 hash (skip zero) : 4B82C121
AccurateRip v1 signature : 579F569E
AccurateRip v2 signature : C5D69651
->Track not present in AccurateRip database.
Statistics
Read error : 0
Jitter error (maybe fixed) : 0
Retry sector count : 0
Damaged sector count : 0

Track 03
Filename : /Volumes/Music Library HD/Bob Dylan - Live in San Diego Disc 2 (2017) [FLAC]/03 Solid Rock.flac

Track gain : -8.09 dB
Peak : 0.959656
CRC32 hash (test run) : 361D222F
CRC32 hash : 361D222F
CRC32 hash (skip zero) : B3158282
AccurateRip v1 signature : 68692FD1
AccurateRip v2 signature : A1D6940F
->Track not present in AccurateRip database.
Statistics
Read error : 0
Jitter error (maybe fixed) : 0
Retry sector count : 0
Damaged sector count : 0

Track 04
Filename : /Volumes/Music Library HD/Bob Dylan - Live in San Diego Disc 2 (2017) [FLAC]/04 Saving Grace.flac

Track gain : -1.84 dB
Peak : 0.906067
CRC32 hash (test run) : B2F93577
CRC32 hash : B2F93577
CRC32 hash (skip zero) : 6757F7E5
AccurateRip v1 signature : 9E6CABED
AccurateRip v2 signature : A4FD4819
->Track not present in AccurateRip database.
Statistics
Read error : 0
Jitter error (maybe fixed) : 0
Retry sector count : 0
Damaged sector count : 0

Track 05
Filename : /Volumes/Music Library HD/Bob Dylan - Live in San Diego Disc 2 (2017) [FLAC]/05 Saved.flac

Track gain : -8.30 dB
Peak : 0.886688
CRC32 hash (test run) : D04ED16C
CRC32 hash : D04ED16C
CRC32 hash (skip zero) : B166C774
AccurateRip v1 signature : 457DEA6D
AccurateRip v2 signature : 227091BD
->Track not present in AccurateRip database.
Statistics
Read error : 0
Jitter error (maybe fixed) : 0
Retry sector count : 0
Damaged sector count : 0

Track 06
Filename : /Volumes/Music Library HD/Bob Dylan - Live in San Diego Disc 2 (2017) [FLAC]/06 What Can I Do For You?.flac

Track gain : -4.53 dB
Peak : 0.866241
CRC32 hash (test run) : 2C88D24F
CRC32 hash : 2C88D24F
CRC32 hash (skip zero) : 626E5B57
AccurateRip v1 signature : F7A4ABFD
AccurateRip v2 signature : C90FA904
->Track not present in AccurateRip database.
Statistics
Read error : 0
Jitter error (maybe fixed) : 0
Retry sector count : 0
Damaged sector count : 0

Track 07
Filename : /Volumes/Music Library HD/Bob Dylan - Live in San Diego Disc 2 (2017) [FLAC]/07 In The Garden.flac

Track gain : -5.16 dB
Peak : 0.959167
CRC32 hash (test run) : 35E2FFB3
CRC32 hash : 35E2FFB3
CRC32 hash (skip zero) : 86C0F1B4
AccurateRip v1 signature : 820C0AE7
AccurateRip v2 signature : 58E0111C
->Track not present in AccurateRip database.
Statistics
Read error : 0
Jitter error (maybe fixed) : 0
Retry sector count : 0
Damaged sector count : 0

Track 08
Filename : /Volumes/Music Library HD/Bob Dylan - Live in San Diego Disc 2 (2017) [FLAC]/08 Band Introduction.flac

Track gain : 1.02 dB
Peak : 0.818237
CRC32 hash (test run) : 73D911B0
CRC32 hash : 73D911B0
CRC32 hash (skip zero) : 73530C42
AccurateRip v1 signature : 9CC15B9C
AccurateRip v2 signature : A0D02C2E
->Track not present in AccurateRip database.
Statistics
Read error : 0
Jitter error (maybe fixed) : 0
Retry sector count : 0
Damaged sector count : 0

Track 09
Filename : /Volumes/Music Library HD/Bob Dylan - Live in San Diego Disc 2 (2017) [FLAC]/09 Blessed Be The Name.flac

Track gain : -8.38 dB
Peak : 0.931030
CRC32 hash (test run) : C2691536
CRC32 hash : C2691536
CRC32 hash (skip zero) : 2D7FAAF0
AccurateRip v1 signature : 0363954B
AccurateRip v2 signature : 09F0782B
->Track not present in AccurateRip database.
Statistics
Read error : 0
Jitter error (maybe fixed) : 0
Retry sector count : 0
Damaged sector count : 0

Track 10
Filename : /Volumes/Music Library HD/Bob Dylan - Live in San Diego Disc 2 (2017) [FLAC]/10 Pressing On.flac

Track gain : -7.20 dB
Peak : 0.958954
CRC32 hash (test run) : A5CE1003
CRC32 hash : A5CE1003
CRC32 hash (skip zero) : B84DFF5A
AccurateRip v1 signature : 6C4A46F9
AccurateRip v2 signature : 8C2D4679
->Track not present in AccurateRip database.
Statistics
Read error : 0
Jitter error (maybe fixed) : 0
Retry sector count : 0
Damaged sector count : 0

Track 11
Filename : /Volumes/Music Library HD/Bob Dylan - Live in San Diego Disc 2 (2017) [FLAC]/11 In The Garden [Incomplete].flac
Pre-gap length : 00:05:59

Track gain : -7.10 dB
Peak : 0.921875
CRC32 hash (test run) : EF0504B4
CRC32 hash : EF0504B4
CRC32 hash (skip zero) : 9BEC7F3D
AccurateRip v1 signature : C2EBE0A0
AccurateRip v2 signature : C4BD390D
->Track not present in AccurateRip database.
Statistics
Read error : 0
Jitter error (maybe fixed) : 0
Retry sector count : 0
Damaged sector count : 0

No errors occurred

End of status report

––-BEGIN XLD SIGNATURE––-
YRv3Lt3TalKe7maZ3U0nIm8HmTrQ2jZk.rlqC_lQvw4DXZ1U5mJDtYopKx2gpe6whLOGJZWFQ6nj5bn0U8vqgCMWDT3oh1acbUeNZ7S
––-END XLD SIGNATURE––-


Thanks to the Original customer.