Subcategories

Bow Street Runners - Bow Street Runners (1970) [Reissue 1996]

Posted By: Andi_Deris
Bow Street Runners - Bow Street Runners (1970) [Reissue 1996]

Bow Street Runners - Bow Street Runners (1970) [Reissue 1996]
EAC Rip | FLAC: Tracks+Cue+Log | MP3 CBR 320 kbps | Scans
224 Mb | 84 Mb | Time: 32:46
Sundazed Music Inc. | SC 6112
Rock, Psychedelic

Flushed from Fayetteville, North Carolina-where they thought they could remain comfortably obscure-by our release of their only album, the Runners have recently re-surfaced. Issued in ultra-limited quantity by B.T. Puppy in 1970-and now changing hands for sums more familiar to NASDAQ-this is an other-worldly blend of sweet female blotter acid harmonies, hypnotic Farfisa and high-octane fuzz guitar histrionics.



Track Listing

01. Electric Star (02:38)
02. Watch (02:15)
03. American Talking Blues (03:50)
04. Leaving Grit America (02:52)
05. Another Face (05:14)
06. Eating From A Plastic Hand (04:08)
07. Rock Fish Blues (02:16)
08. Push It Through (02:06)
09. Spunky Monkey (03:16)
10. Steve's Jam (04:05)

Produced by Bob Irwin

The Band

• Steve Darling - guitar, vocals
• David Guy - keyboards, vocals
• George Graham - drums, percussion
• William Simkiss - bass, guitar, vocals
• Frank Hardwick - bass
• Mike Dees - guitar

Notes

Originally released in 1970 as B.T. Puppy Records BTPS 1026
Manufactured under license from B.T. Puppy Records, Inc.


Exact Audio Copy V0.99 prebeta 5 from 4. May 2009

EAC extraction logfile from 13. October 2009, 22:44

Bow Street Runners / Bow Street Runners

Used drive : HL-DT-STDVD-ROM GDR8162B Adapter: 1 ID: 0

Read mode : Secure
Utilize accurate stream : Yes
Defeat audio cache : Yes
Make use of C2 pointers : No

Read offset correction : 102
Overread into Lead-In and Lead-Out : No
Fill up missing offset samples with silence : Yes
Delete leading and trailing silent blocks : No
Null samples used in CRC calculations : No
Used interface : Installed external ASPI interface
Gap handling : Appended to previous track

Used output format : User Defined Encoder
Selected bitrate : 1024 kBit/s
Quality : High
Add ID3 tag : Yes
Command line compressor : C:\Program Files\FLAC\flac.exe
Additional command line options : -5 -T "Artist=%a" -T "Title=%t" -T "Album=%g" -T "Date=%y" -T "Tracknumber=%n" -T "Genre=%m" %s -o %d
Use compression offset : 102


TOC of the extracted CD

Track | Start | Length | Start sector | End sector
––––––––––––––––––––––––––––-
1 | 0:00.00 | 2:38.10 | 0 | 11859
2 | 2:38.10 | 2:15.37 | 11860 | 22021
3 | 4:53.47 | 3:50.55 | 22022 | 39326
4 | 8:44.27 | 2:52.13 | 39327 | 52239
5 | 11:36.40 | 5:14.15 | 52240 | 75804
6 | 16:50.55 | 4:08.60 | 75805 | 94464
7 | 20:59.40 | 2:16.14 | 94465 | 104678
8 | 23:15.54 | 2:06.51 | 104679 | 114179
9 | 25:22.30 | 3:16.57 | 114180 | 128936
10 | 28:39.12 | 4:05.58 | 128937 | 147369


Track 1

Filename E:\WT - RIPS\01 - Electric Star - Bow Street Runners.wav

Pre-gap length 0:00:02.00

Peak level 89.1 %
Track quality 100.0 %
Test CRC 1ECB8CFC
Copy CRC 1ECB8CFC
Track not present in AccurateRip database
Copy OK

Track 2

Filename E:\WT - RIPS\02 - Watch - Bow Street Runners.wav

Pre-gap length 0:00:02.43

Peak level 89.1 %
Track quality 99.9 %
Test CRC 1E8CD286
Copy CRC 1E8CD286
Track not present in AccurateRip database
Copy OK

Track 3

Filename E:\WT - RIPS\03 - American Talking Blues - Bow Street Runners.wav

Pre-gap length 0:00:02.42

Peak level 89.1 %
Track quality 100.0 %
Test CRC 9E98627E
Copy CRC 9E98627E
Track not present in AccurateRip database
Copy OK

Track 4

Filename E:\WT - RIPS\04 - Leaving Grit America - Bow Street Runners.wav

Pre-gap length 0:00:02.42

Peak level 89.1 %
Track quality 100.0 %
Test CRC 91ED085B
Copy CRC 91ED085B
Track not present in AccurateRip database
Copy OK

Track 5

Filename E:\WT - RIPS\05 - Another Face - Bow Street Runners.wav

Pre-gap length 0:00:02.43

Peak level 89.1 %
Track quality 100.0 %
Test CRC 4B025350
Copy CRC 4B025350
Track not present in AccurateRip database
Copy OK

Track 6

Filename E:\WT - RIPS\06 - Eating From A Plastic Hand - Bow Street Runners.wav

Pre-gap length 0:00:02.43

Peak level 89.1 %
Track quality 100.0 %
Test CRC 690CFA60
Copy CRC 690CFA60
Track not present in AccurateRip database
Copy OK

Track 7

Filename E:\WT - RIPS\07 - Rock Fish Blues - Bow Street Runners.wav

Pre-gap length 0:00:02.43

Peak level 89.1 %
Track quality 100.0 %
Test CRC BF0CE604
Copy CRC BF0CE604
Track not present in AccurateRip database
Copy OK

Track 8

Filename E:\WT - RIPS\08 - Push It Through - Bow Street Runners.wav

Pre-gap length 0:00:02.42

Peak level 89.1 %
Track quality 100.0 %
Test CRC 77497C11
Copy CRC 77497C11
Track not present in AccurateRip database
Copy OK

Track 9

Filename E:\WT - RIPS\09 - Spunky Monkey - Bow Street Runners.wav

Pre-gap length 0:00:02.43

Peak level 89.1 %
Track quality 100.0 %
Test CRC CB88FB18
Copy CRC CB88FB18
Track not present in AccurateRip database
Copy OK

Track 10

Filename E:\WT - RIPS\10 - Steve's Jam - Bow Street Runners.wav

Pre-gap length 0:00:02.42

Peak level 89.1 %
Track quality 100.0 %
Test CRC 5BF8CBBE
Copy CRC 5BF8CBBE
Track not present in AccurateRip database
Copy OK


None of the tracks are present in the AccurateRip database

No errors occurred

End of status report


Many thanks to the original uploader: Wtorm58



Password: pass