Tags
Language
Tags

Bruno Campanella, Choeurs & Orchestre du Theatre National de l'Opera de Paris- Donizetti: La Fille du Regiment (2002)

Posted By: ArlegZ
Bruno Campanella, Choeurs & Orchestre du Theatre National de l'Opera de Paris- Donizetti: La Fille du Regiment (2002)

Bruno Campanella, Choeurs & Orchestre du Théâtre National de l'Opera de Paris, June Anderson, Alfredo Kraus - Donizetti: La Fille du Régiment (2002)
EAC | FLAC | Image (Cue & Log) ~ 488 Mb | Total time: 68:49+42:05 | Scans included
Classical | Label: EMI | # 724357526029 | Recorded: 1986

La fille du régiment (The Daughter of the Regiment) is an opéra comique in two acts by Gaetano Donizetti, set to a French libretto by Jules-Henri Vernoy de Saint-Georges and Jean-François Bayard. It was first performed on 11 February 1840 by the Paris Opéra-Comique at the Salle de la Bourse.
The opera was written by Donizetti while he was living in Paris between 1838 and 1840 preparing a revised version of his then-unperformed Italian opera, Poliuto as Les martyrs for the Paris Opéra. Since Martyrs was delayed, the composer had time to write the music for La fille, his first opera set to a French text, as well as to stage the French version of Lucia di Lammermoor as Lucie de Lammermoor
As La fille, it quickly became a popular success, partly because of the famous aria "Ah! mes amis, quel jour de fête!", which requires of the tenor no fewer than nine high Cs. La figlia del reggimento, a slightly different Italian-language version (in translation by Calisto Bassi), was adapted to the tastes of the Italian public.
"Alfredo Kraus makes a very good and enjoyable Tonio and manages to hit all of those high notes (at 59 years old!). His voice is clear and fluid, and somewhat gentle as was his trademark. Still, it is not up to the level of Pavarotti on Decca - and whose is? Pavarotti as Tonio was a performance that comes once in a lifetime. Kraus was past his prime and just a bit weak when this was recorded; it would have been interesting to hear him in this role at 40.
On the other side, a young June Anderson makes an excellent Marie. Just a bit short of Sutherland perhaps, but still very strong and clear with an excellent range in this difficult role. She is a delight.
The Orchestra of the National Opera of Paris under the direction of Bruno Campanella comes through very clearly and has a decidely French lilt to its playing.

Performer:
Marie - June Anderson
Tonio - Alfredo Kraus
Sulpice - Michel Trempont
La Marquise - Hélia T'Hézan
Hortentius - Antoine Garcin
Un Caporal - Jean-Noël Bèguelin
La Duchesse (rôle parlé) - Jeanne Perez
Un Notaire (rôle parlé) – Manuel de Lerena
Choeurs & Orchestre du Théâtre National de l'Opera de Paris
Conductor - Bruno Campanella

Track List:
CD1:
01. Ouverature
02. Acte I. No.1 Indroduction: L'ennemi S'avance
03. Priere: Sainte Madone
04. Couplets: Pour Une Femme De Mon Nom
05. No.2 Duo: La Voila! La Voila… Au Bruit De La La Guerre
06. No.3 Choeur: Allons, Allons, March
07. Couplets: Chancun Le Sait
08. No.4 Duo: Quoi! Vous M'Aimez… le Beau Pays De Mon Enfance
09. No.5 Choeur: Rataplan, Rataplan, Rataplan
10. No.6 Cavatine: Ah! Mes Amis…
11. No.7 Finale - Romance & Ensemble: Je Suis Soldat Il Faut Partir… Partons Marie
CD2:
01. Entracte
02. Acte II. Dialogue: Enfin La Voila Mariee
03. No.8 Trio: Le Jour Naissait Dans Le Bocage
04. Dialogue: Ah! Voila D'anciennes Habitudes
05. No.9 Air & Choeur: C'en Est Donc Fait… Par Le Rang Et Par L'opulence… Salut A La France
06. No.10 Trio: Tous Les Trois Reunis
07. No.11 Romance: Pour Me Rapprocher De Marie
08. Dialogue: Monsieur! Dans Une Heure On Signe Le Contrat
09. No.12 Finale: Mais O Ciel! Quel Bruit!


Exact Audio Copy V1.3 from 2. September 2016

EAC extraction logfile from 16. September 2019, 17:17

Bruno Campanella, Chœurs & Orchestre du Théâtre National de l'Opéra de Paris / Donizetti - La Fille du régiment CD1

Used drive : HL-DT-STDVDRAM GH24NS95 Adapter: 1 ID: 0

Read mode : Secure
Utilize accurate stream : Yes
Defeat audio cache : Yes
Make use of C2 pointers : No

Read offset correction : 6
Overread into Lead-In and Lead-Out : No
Fill up missing offset samples with silence : Yes
Delete leading and trailing silent blocks : No
Null samples used in CRC calculations : Yes
Used interface : Native Win32 interface for Win NT & 2000

Used output format : User Defined Encoder
Selected bitrate : 128 kBit/s
Quality : High
Add ID3 tag : No
Command line compressor : C:\Program Files\Exact Audio Copy\FLAC\FLAC.EXE
Additional command line options : -V -8 -T "Date=%year%" -T "Genre=%genre%" %source%


TOC of the extracted CD

Track | Start | Length | Start sector | End sector
––––––––––––––––––––––––––––-
1 | 0:00.00 | 6:23.17 | 0 | 28741
2 | 6:23.17 | 1:13.10 | 28742 | 34226
3 | 7:36.27 | 3:05.58 | 34227 | 48159
4 | 10:42.10 | 4:18.15 | 48160 | 67524
5 | 15:00.25 | 9:29.30 | 67525 | 110229
6 | 24:29.55 | 4:08.52 | 110230 | 128881
7 | 28:38.32 | 8:52.20 | 128882 | 168801
8 | 37:30.52 | 10:22.73 | 168802 | 215524
9 | 47:53.50 | 2:04.22 | 215525 | 224846
10 | 49:57.72 | 7:28.08 | 224847 | 258454
11 | 57:26.05 | 11:21.30 | 258455 | 309559


Range status and errors

Selected range

Filename C:\ArlegZ\Donizetti - La Fille du régiment CD1.wav

Peak level 97.7 %
Extraction speed 7.8 X
Range quality 100.0 %
Test CRC 4C187EBE
Copy CRC 4C187EBE
Copy OK

No errors occurred

End of status report

==== Log checksum 09A746E8CDF843BE9036D22E987843E18707A96236C3F8D136F62EEACF86FD1E ====


Exact Audio Copy V1.3 from 2. September 2016

EAC extraction logfile from 16. September 2019, 17:34

Bruno Campanella, Chœurs & Orchestre du Théâtre National de l'Opéra de Paris / Donizetti - La Fille du régiment CD2

Used drive : HL-DT-STDVDRAM GH24NS95 Adapter: 1 ID: 0

Read mode : Secure
Utilize accurate stream : Yes
Defeat audio cache : Yes
Make use of C2 pointers : No

Read offset correction : 6
Overread into Lead-In and Lead-Out : No
Fill up missing offset samples with silence : Yes
Delete leading and trailing silent blocks : No
Null samples used in CRC calculations : Yes
Used interface : Native Win32 interface for Win NT & 2000

Used output format : User Defined Encoder
Selected bitrate : 128 kBit/s
Quality : High
Add ID3 tag : No
Command line compressor : C:\Program Files\Exact Audio Copy\FLAC\FLAC.EXE
Additional command line options : -V -8 -T "Date=%year%" -T "Genre=%genre%" %source%


TOC of the extracted CD

Track | Start | Length | Start sector | End sector
––––––––––––––––––––––––––––-
1 | 0:00.00 | 2:22.68 | 0 | 10717
2 | 2:22.68 | 1:32.17 | 10718 | 17634
3 | 3:55.10 | 8:23.55 | 17635 | 55414
4 | 12:18.65 | 1:34.70 | 55415 | 62534
5 | 13:53.60 | 10:41.18 | 62535 | 110627
6 | 24:35.03 | 2:43.45 | 110628 | 122897
7 | 27:18.48 | 4:49.25 | 122898 | 144597
8 | 32:07.73 | 2:51.17 | 144598 | 157439
9 | 34:59.15 | 7:04.34 | 157440 | 189273


Range status and errors

Selected range

Filename C:\ArlegZ\Donizetti - La Fille du régiment CD2.wav

Peak level 97.7 %
Extraction speed 7.0 X
Range quality 100.0 %
Test CRC 8BEE2EAC
Copy CRC 8BEE2EAC
Copy OK

No errors occurred

End of status report

==== Log checksum 38E31A6B64E31CC1D8CFCDE594478D24881391DBF430FAE1F7A9754919AD5371 ====

Bruno Campanella, Choeurs & Orchestre du Theatre National de l'Opera de Paris- Donizetti: La Fille du Regiment (2002)