Subcategories
Tags
Language
Tags

Buddy Holly & The Picks - Millenium Collection (1999)

Posted By: v3122
Buddy Holly & The Picks - Millenium Collection (1999)

Buddy Holly & The Picks - Millenium Collection (1999)
EAC | Flac(Image) + Cue + Log & MP3 CBR 320Kbps
2CD | Millenium, 20.4040-MI | ~ 529 or 218 Mb | Artwork(jpg) -> 24 Mb
Rock & Roll

Charles Hardin Holley (September 7, 1936 – February 3, 1959), known professionally as Buddy Holly, was an American musician and singer-songwriter who was a central and pioneering figure of mid-1950s rock and roll. He was born in Lubbock, Texas, to a musical family during the Great Depression, and learned to play guitar and sing alongside his siblings. His style was influenced by gospel music, country music, and rhythm and blues acts, which he performed in Lubbock with his friends from high school.

He made his first appearance on local television in 1952, and the following year he formed the group "Buddy and Bob" with his friend Bob Montgomery. In 1955, after opening for Elvis Presley, he decided to pursue a career in music. He opened for Presley three times that year; his band's style shifted from country and western to entirely rock and roll. In October that year, when he opened for Bill Haley & His Comets, he was spotted by Nashville scout Eddie Crandall, who helped him get a contract with Decca Records.

Holly's recording sessions at Decca were produced by Owen Bradley, who had become famous for producing orchestrated country hits for stars like Patsy Cline. Unhappy with Bradley's musical style and control in the studio, Holly went to producer Norman Petty in Clovis, New Mexico, and recorded a demo of "That'll Be the Day", among other songs. Petty became the band's manager and sent the demo to Brunswick Records, which released it as a single credited to "The Crickets", which became the name of Holly's band. In September 1957, as the band toured, "That'll Be the Day" topped the US and UK singles charts. Its success was followed in October by another major hit, "Peggy Sue".

The album Chirping Crickets, released in November 1957, reached number five on the UK Albums Chart. Holly made his second appearance on The Ed Sullivan Show in January 1958 and soon after, toured Australia and then the UK. In early 1959, he assembled a new band, consisting of future country music star Waylon Jennings (bass), famed session musician Tommy Allsup (guitar), and Carl Bunch (drums), and embarked on a tour of the midwestern U.S. After a show in Clear Lake, Iowa, he chartered an airplane to travel to his next show, in Moorhead, Minnesota. Soon after takeoff, the plane crashed, killing Holly, Ritchie Valens, The Big Bopper, and pilot Roger Peterson in a tragedy later referred to by Don McLean as "The Day the Music Died".

During his short career, Holly wrote and recorded songs. He is often regarded as the artist who defined the traditional rock-and-roll lineup of two guitars, bass, and drums. He was a major influence on later popular music artists, including Bob Dylan, The Beatles, The Rolling Stones, Eric Clapton, and Elton John. He was among the first artists inducted into the Rock and Roll Hall of Fame, in 1986. Rolling Stone magazine ranked him number 13 in its list of "100 Greatest Artists"…

~ wiki
Buddy Holly & The Picks - Millenium Collection (1999):

Buddy Holly & The Picks - Millenium Collection (1999)

Tracklist CD1:

01. Peggy Sue (02:35)
02. Heartbeat (02:11)
03. Words Of Love (01:55)
04. Love's Made A Fool Of You (02:09)
05. Listen To Me (02:24)
06. Come Back Baby (01:48)
07. Rock-A-Bye Rock (02:25)
08. Midnight Shift (02:13)
09. Rock Around With Ollie Vee (02:20)
10. Modern Don Juan (02:41)
11. Blue Days, Black Nights (02:07)
12. Love Me (02:09)
13. Raining In My Heart (02:51)
14. Take Your Time (02:00)
15. It's Not My Fault (01:59)
16. Reminiscing (02:01)
17. What To Do (01:57)
18. That's What They Say (02:19)
19. Moondreams (02:42)
20. True Love Ways (02:50)

Exact Audio Copy V1.3 from 2. September 2016

Отчёт EAC об извлечении, выполненном 10. августа 2019, 10:13

Buddy Holly & The Picks / Millenium Collection (CD-1)

Дисковод: PIONEER DVD-RW DVR-109 Adapter: 3 ID: 0

Режим чтения : Достоверность
Использование точного потока : Да
Отключение кэша аудио : Да
Использование указателей C2 : Нет

Коррекция смещения при чтении : 48
Способность читать области Lead-in и Lead-out : Нет
Заполнение пропущенных сэмплов тишиной : Да
Удаление блоков с тишиной в начале и конце : Нет
При вычислениях CRC использовались нулевые сэмплы : Да
Интерфейс : Установленный внешний ASPI-интерфейс

Выходной формат : Пользовательский кодировщик
Выбранный битрейт : 128 kBit/s
Качество : Высокий
Добавление ID3-тега : Нет
Утилита сжатия : C:\Program Files\Exact Audio Copy\FLAC\FLAC.EXE
Дополнительные параметры : -V -8 -T "Genre=%genre%" -T "Artist=%artist%" -T "Title=%title%" -T "Album=%albumtitle%" -T "Date=%year%" -T "Tracknumber=%tracknr%" -T "Comment=%comment%" %source%


TOC извлечённого CD

Трек | Старт | Длительность | Начальный сектор | Конечный сектор
––––––––––––––––––––––––––––––––––-
1 | 0:00.00 | 2:35.27 | 0 | 11651
2 | 2:35.27 | 2:11.63 | 11652 | 21539
3 | 4:47.15 | 1:55.57 | 21540 | 30221
4 | 6:42.72 | 2:09.68 | 30222 | 39964
5 | 8:52.65 | 2:24.25 | 39965 | 50789
6 | 11:17.15 | 1:48.65 | 50790 | 58954
7 | 13:06.05 | 2:25.57 | 58955 | 69886
8 | 15:31.62 | 2:13.45 | 69887 | 79906
9 | 17:45.32 | 2:20.35 | 79907 | 90441
10 | 20:05.67 | 2:41.70 | 90442 | 102586
11 | 22:47.62 | 2:07.13 | 102587 | 112124
12 | 24:55.00 | 2:09.05 | 112125 | 121804
13 | 27:04.05 | 2:51.45 | 121805 | 134674
14 | 29:55.50 | 2:00.02 | 134675 | 143676
15 | 31:55.52 | 1:59.43 | 143677 | 152644
16 | 33:55.20 | 2:01.12 | 152645 | 161731
17 | 35:56.32 | 1:57.45 | 161732 | 170551
18 | 37:54.02 | 2:19.03 | 170552 | 180979
19 | 40:13.05 | 2:42.52 | 180980 | 193181
20 | 42:55.57 | 2:50.30 | 193182 | 205961


Характеристики диапазона извлечения и сообщения об ошибках

Выбранный диапазон

Имя файла I:\MOI_RAZDACI\Buddy Holly and The Picks - Millenium Collection (1999)\Buddy Holly and The Picks - Millenium Collection (1999)\1-CD\Buddy Holly & The Picks - Millenium Collection (CD-1).wav

Пиковый уровень 90.9 %
Скорость извлечения 7.2 X
Качество диапазона 100.0 %
CRC теста C8D09B36
CRC копии C8D09B36
Копирование… OK

Ошибок не произошло


AccurateRip: сводка

Трек 1 отсутствует в базе данных
Трек 2 отсутствует в базе данных
Трек 3 отсутствует в базе данных
Трек 4 отсутствует в базе данных
Трек 5 отсутствует в базе данных
Трек 6 отсутствует в базе данных
Трек 7 отсутствует в базе данных
Трек 8 отсутствует в базе данных
Трек 9 отсутствует в базе данных
Трек 10 отсутствует в базе данных
Трек 11 отсутствует в базе данных
Трек 12 отсутствует в базе данных
Трек 13 отсутствует в базе данных
Трек 14 отсутствует в базе данных
Трек 15 отсутствует в базе данных
Трек 16 отсутствует в базе данных
Трек 17 отсутствует в базе данных
Трек 18 отсутствует в базе данных
Трек 19 отсутствует в базе данных
Трек 20 отсутствует в базе данных

Ни одного трека нет в базе AccurateRip

Конец отчёта

–– CUETools DB Plugin V2.1.6

[CTDB TOCID: njjXQ.U4jWFnbyFx5WKwl5VyuKc-] found
Submit result: njjXQ.U4jWFnbyFx5WKwl5VyuKc- has been confirmed
Track | CTDB Status
1 | (40/40) Accurately ripped
2 | (40/40) Accurately ripped
3 | (40/40) Accurately ripped
4 | (40/40) Accurately ripped
5 | (40/40) Accurately ripped
6 | (39/40) Accurately ripped
7 | (39/40) Accurately ripped
8 | (39/40) Accurately ripped
9 | (39/40) Accurately ripped
10 | (40/40) Accurately ripped
11 | (40/40) Accurately ripped
12 | (40/40) Accurately ripped
13 | (40/40) Accurately ripped
14 | (39/40) Accurately ripped
15 | (40/40) Accurately ripped
16 | (40/40) Accurately ripped
17 | (40/40) Accurately ripped
18 | (40/40) Accurately ripped
19 | (40/40) Accurately ripped
20 | (40/40) Accurately ripped


==== Контрольная сумма отчёта 32BE2564D27EA4952E82C0FA91FD6A858F2AA6FA0D33A43B9EC72996F913ED86 ====


[CUETools log; Date: 10.08.2019 17:29:04; Version: 2.1.4]
[AccurateRip ID: 00208d22-01dd89bb-3a0aba14] found.
Track [ CRC | V2 ] Status
01 [6d2015de|5e8507e7] (03+04/19) Accurately ripped
02 [0d8b8ee6|38f76d51] (03+04/19) Accurately ripped
03 [42fbdd58|23ea13f3] (03+04/19) Accurately ripped
04 [88550ea7|22ee49e9] (03+04/19) Accurately ripped
05 [0fd37500|65169daa] (03+04/19) Accurately ripped
06 [3d96c71a|a7881629] (03+04/19) Accurately ripped
07 [0bbc6872|737fd0d9] (03+04/19) Accurately ripped
08 [c01c2fc1|1deab319] (03+04/19) Accurately ripped
09 [57af21de|19c63bb6] (03+04/19) Accurately ripped
10 [a8b35138|9907c7d4] (03+04/19) Accurately ripped
11 [57c9b7bd|4ddff65d] (03+04/19) Accurately ripped
12 [ca030db2|c56dcb72] (03+04/19) Accurately ripped
13 [1cf55111|b467ec23] (03+04/19) Accurately ripped
14 [a3b3994f|533203f0] (03+04/19) Accurately ripped
15 [00dff7ac|f94d0927] (03+04/19) Accurately ripped
16 [9a04b490|d88c43cb] (03+04/19) Accurately ripped
17 [017f6122|51106fba] (03+04/19) Accurately ripped
18 [d9ca292a|89410a5c] (03+04/19) Accurately ripped
19 [5b2584fa|61baa680] (03+04/19) Accurately ripped
20 [c3784263|ef585381] (03+04/19) Accurately ripped
Offsetted by -913:
01 [c108deb6] (03/19) Accurately ripped
02 [8db9ce3a] (03/19) Accurately ripped
03 [78faf359] (03/19) Accurately ripped
04 [00d146d9] (03/19) Accurately ripped
05 [acd9b5bd] (03/19) Accurately ripped
06 [d18beaeb] (03/19) Accurately ripped
07 [5ea3dab9] (03/19) Accurately ripped
08 [bcffe172] (03/19) Accurately ripped
09 [217cde7d] (03/19) Accurately ripped
10 [bb053196] (03/19) Accurately ripped
11 [2bbe5968] (03/19) Accurately ripped
12 [0687324d] (03/19) Accurately ripped
13 [25f16df1] (03/19) Accurately ripped
14 [92c28ba4] (03/19) Accurately ripped
15 [5ff97949] (03/19) Accurately ripped
16 [5e07b20c] (03/19) Accurately ripped
17 [1a1077dc] (03/19) Accurately ripped
18 [3756ec7e] (03/19) Accurately ripped
19 [36256dad] (03/19) Accurately ripped
20 [610b2256] (03/19) Accurately ripped
Offsetted by -10:
01 [f33b4f4e] (02/19) Accurately ripped
02 [bb643fae] (02/19) Accurately ripped
03 [54661fc2] (02/19) Accurately ripped
04 [9a79bf5b] (02/19) Accurately ripped
05 [ebb15142] (02/19) Accurately ripped
06 [659fa1a4] (02/19) Accurately ripped
07 [2ff943d8] (02/19) Accurately ripped
08 [d51b090b] (02/19) Accurately ripped
09 [6ab7d5b4] (02/19) Accurately ripped
10 [7b7a2c24] (02/19) Accurately ripped
11 [16410a8b] (02/19) Accurately ripped
12 [4de637e0] (02/19) Accurately ripped
13 [bbc285d1] (02/19) Accurately ripped
14 [38af8e81] (02/19) Accurately ripped
15 [8a77f0ae] (02/19) Accurately ripped
16 [e94611e8] (02/19) Accurately ripped
17 [bf086626] (02/19) Accurately ripped
18 [d45d81f2] (02/19) Accurately ripped
19 [160b7118] (02/19) Accurately ripped
20 [c2ac0f01] (02/19) Accurately ripped
Offsetted by -249:
01 [f85f9276] (00/19) No match (V2 was not tested)
02 [76525a5a] (00/19) No match (V2 was not tested)
03 [f49e8641] (00/19) No match (V2 was not tested)
04 [4c19d829] (00/19) No match (V2 was not tested)
05 [0c1afb05] (00/19) No match (V2 was not tested)
06 [08d9a253] (00/19) No match (V2 was not tested)
07 [c5415911] (00/19) No match (V2 was not tested)
08 [4ae5ebda] (00/19) No match (V2 was not tested)
09 [31a16c95] (00/19) No match (V2 was not tested)
10 [dc3e02c6] (00/19) No match (V2 was not tested)
11 [91981260] (00/19) No match (V2 was not tested)
12 [379b74c5] (00/19) No match (V2 was not tested)
13 [c25158f1] (00/19) No match (V2 was not tested)
14 [87cef2ac] (00/19) No match (V2 was not tested)
15 [495b4991] (00/19) No match (V2 was not tested)
16 [cf79e26c] (00/19) No match (V2 was not tested)
17 [f0ecc46c] (00/19) No match (V2 was not tested)
18 [391f189e] (00/19) No match (V2 was not tested)
19 [228295e5] (00/19) No match (V2 was not tested)
20 [62cedc8e] (00/19) No match (V2 was not tested)

Track Peak [ CRC32 ] [W/O NULL] [ LOG ]
– 90,9 [C8D09B36] [8F03C30A] CRC32
01 89,1 [45B0BC11] [68BDE32A]
02 90,8 [6AA79967] [D5DD512E]
03 88,3 [2E68C101] [315CE483]
04 89,4 [68459BC7] [0C769FBD]
05 90,9 [8E00D486] [E0266E10]
06 63,8 [1EF6ED3E] [08E9641C]
07 89,1 [5A7A4485] [12C7BA98]
08 89,1 [5EB5A388] [AF763916]
09 89,4 [817319FD] [BF39A093]
10 89,1 [D0DD39EB] [309FC907]
11 89,1 [F7EAD654] [DF9B381C]
12 88,7 [A5590F72] [880431B1]
13 88,7 [D31B54A5] [FB457AB9]
14 83,2 [62CD0BB6] [043AE049]
15 89,1 [97529574] [BBCE4E71]
16 89,1 [327204B2] [2830DD91]
17 88,5 [117915A5] [980A239B]
18 89,3 [A74D66E2] [706E4E94]
19 86,4 [AF6961A8] [219D8D1A]
20 89,1 [0F1E2B04] [7D76AE10]


Buddy Holly & The Picks - Millenium Collection (1999)

Tracklist CD2:

01. Bo Diddley (02:23)
02. You're So Square (Baby I Don't Care) (01:36)
03. Don't Come Back Knockin' (02:14)
04. Little Baby (01:54)
05. Everyday (02:08)
06. Girl On My Mind (02:18)
07. Well…. Alright (02:14)
08. Ting - A- Ling (02:41)
09. You're The One (02:03)
10. Because I Love You (02:40)
11. I'm Gonna Set My Foot Down (02:19)
12. Love Is Strange (03:04)
13. You Are My One Desire (02:23)
14. Learning The Game (02:02)
15. Crying, Waiting, Hoping (02:05)
16. Words (The Picks Solo) (02:58)
17. You've Lost That Lovin' Feeling (The Picks Solo) (03:06)
18. Buddy Holly Not Fade Away Tribute (The Picks Solo) (03:05)
19. Forever 22 (The Picks Solo) (03:08)

Exact Audio Copy V1.3 from 2. September 2016

Отчёт EAC об извлечении, выполненном 10. августа 2019, 10:32

Buddy Holly & The Picks / Millenium Collection (CD-2)

Дисковод: PIONEER DVD-RW DVR-109 Adapter: 3 ID: 0

Режим чтения : Достоверность
Использование точного потока : Да
Отключение кэша аудио : Да
Использование указателей C2 : Нет

Коррекция смещения при чтении : 48
Способность читать области Lead-in и Lead-out : Нет
Заполнение пропущенных сэмплов тишиной : Да
Удаление блоков с тишиной в начале и конце : Нет
При вычислениях CRC использовались нулевые сэмплы : Да
Интерфейс : Установленный внешний ASPI-интерфейс

Выходной формат : Пользовательский кодировщик
Выбранный битрейт : 128 kBit/s
Качество : Высокий
Добавление ID3-тега : Нет
Утилита сжатия : C:\Program Files\Exact Audio Copy\FLAC\FLAC.EXE
Дополнительные параметры : -V -8 -T "Genre=%genre%" -T "Artist=%artist%" -T "Title=%title%" -T "Album=%albumtitle%" -T "Date=%year%" -T "Tracknumber=%tracknr%" -T "Comment=%comment%" %source%


TOC извлечённого CD

Трек | Старт | Длительность | Начальный сектор | Конечный сектор
––––––––––––––––––––––––––––––––––-
1 | 0:00.00 | 2:23.17 | 0 | 10741
2 | 2:23.17 | 1:36.68 | 10742 | 18009
3 | 4:00.10 | 2:14.15 | 18010 | 28074
4 | 6:14.25 | 1:54.65 | 28075 | 36689
5 | 8:09.15 | 2:08.12 | 36690 | 46301
6 | 10:17.27 | 2:18.40 | 46302 | 56691
7 | 12:35.67 | 2:14.48 | 56692 | 66789
8 | 14:50.40 | 2:41.45 | 66790 | 78909
9 | 17:32.10 | 2:03.12 | 78910 | 88146
10 | 19:35.22 | 2:40.13 | 88147 | 100159
11 | 22:15.35 | 2:19.27 | 100160 | 110611
12 | 24:34.62 | 3:04.70 | 110612 | 124481
13 | 27:39.57 | 2:23.35 | 124482 | 135241
14 | 30:03.17 | 2:02.33 | 135242 | 144424
15 | 32:05.50 | 2:05.45 | 144425 | 153844
16 | 34:11.20 | 2:58.45 | 153845 | 167239
17 | 37:09.65 | 3:06.37 | 167240 | 181226
18 | 40:16.27 | 3:05.50 | 181227 | 195151
19 | 43:22.02 | 3:08.33 | 195152 | 209284


Характеристики диапазона извлечения и сообщения об ошибках

Выбранный диапазон

Имя файла I:\MOI_RAZDACI\Buddy Holly and The Picks - Millenium Collection (1999)\Buddy Holly and The Picks - Millenium Collection (1999)\2-CD\Buddy Holly & The Picks - Millenium Collection (CD-2).wav

Пиковый уровень 92.9 %
Скорость извлечения 6.8 X
Качество диапазона 99.9 %
CRC теста 485FD311
CRC копии 485FD311
Копирование… OK

Ошибок не произошло


AccurateRip: сводка

Трек 1 отсутствует в базе данных
Трек 2 отсутствует в базе данных
Трек 3 отсутствует в базе данных
Трек 4 отсутствует в базе данных
Трек 5 отсутствует в базе данных
Трек 6 отсутствует в базе данных
Трек 7 отсутствует в базе данных
Трек 8 отсутствует в базе данных
Трек 9 отсутствует в базе данных
Трек 10 отсутствует в базе данных
Трек 11 отсутствует в базе данных
Трек 12 отсутствует в базе данных
Трек 13 отсутствует в базе данных
Трек 14 отсутствует в базе данных
Трек 15 отсутствует в базе данных
Трек 16 отсутствует в базе данных
Трек 17 отсутствует в базе данных
Трек 18 отсутствует в базе данных
Трек 19 отсутствует в базе данных

Ни одного трека нет в базе AccurateRip

Конец отчёта

–– CUETools DB Plugin V2.1.6

[CTDB TOCID: hvfoyFKzmgtS5QtZRHb4cPPZDa8-] found
Submit result: hvfoyFKzmgtS5QtZRHb4cPPZDa8- has been confirmed
Track | CTDB Status
1 | (36/37) Accurately ripped
2 | (37/37) Accurately ripped
3 | (37/37) Accurately ripped
4 | (37/37) Accurately ripped
5 | (37/37) Accurately ripped
6 | (37/37) Accurately ripped
7 | (37/37) Accurately ripped
8 | (37/37) Accurately ripped
9 | (37/37) Accurately ripped
10 | (36/37) Accurately ripped
11 | (37/37) Accurately ripped
12 | (36/37) Accurately ripped
13 | (37/37) Accurately ripped
14 | (36/37) Accurately ripped
15 | (36/37) Accurately ripped
16 | (36/37) Accurately ripped
17 | (37/37) Accurately ripped
18 | (37/37) Accurately ripped
19 | (37/37) Accurately ripped


==== Контрольная сумма отчёта 4A150B4F03D245BA5049DC0876DE8B63DA468866D4359498B5EA6D3882B6F520 ====


[CUETools log; Date: 10.08.2019 17:31:05; Version: 2.1.4]
[AccurateRip ID: 001dc91c-01a744ac-fe0ae613] found.
Track [ CRC | V2 ] Status
01 [a588b9de|e4d718e1] (03+04/19) Accurately ripped
02 [d1099875|5042a14c] (03+04/19) Accurately ripped
03 [7b16009b|67fcfd5a] (03+04/19) Accurately ripped
04 [7994aa75|e99ff75a] (03+04/19) Accurately ripped
05 [e46d711e|83bcf533] (03+04/19) Accurately ripped
06 [736d3934|7ef74fd5] (03+04/19) Accurately ripped
07 [b9e229d9|428213e8] (03+04/19) Accurately ripped
08 [b0e1ba9c|8148f950] (03+04/19) Accurately ripped
09 [cb64cdda|615c8788] (03+04/19) Accurately ripped
10 [05e04a6d|1eafd7ee] (03+04/19) Accurately ripped
11 [c9d0b8d2|502935a6] (03+04/19) Accurately ripped
12 [7dfb23fc|329d5dde] (03+04/19) Accurately ripped
13 [eff49923|fcbc6fe5] (03+04/19) Accurately ripped
14 [2ad6cc67|ab427087] (03+04/19) Accurately ripped
15 [07c047fd|351abfa8] (03+04/19) Accurately ripped
16 [5a4400ca|432f53c2] (03+04/19) Accurately ripped
17 [a70052e0|fcf90690] (03+04/19) Accurately ripped
18 [b91ccb9f|e5c7924f] (03+04/20) Accurately ripped
19 [cb347539|2aef2c49] (03+04/20) Accurately ripped
Offsetted by -5:
01 [e88bb8e4] (02/19) Accurately ripped
02 [2d332596] (02/19) Accurately ripped
03 [639aa059] (02/19) Accurately ripped
04 [20f7da71] (02/19) Accurately ripped
05 [5243a53b] (02/19) Accurately ripped
06 [a0447ec4] (02/19) Accurately ripped
07 [ddbcb847] (02/19) Accurately ripped
08 [0f9ae4c7] (02/19) Accurately ripped
09 [967f2cfd] (02/19) Accurately ripped
10 [62f5d513] (02/19) Accurately ripped
11 [ab6a2d98] (02/19) Accurately ripped
12 [322b740e] (02/19) Accurately ripped
13 [e86b2328] (02/19) Accurately ripped
14 [fe8d4e71] (02/19) Accurately ripped
15 [a9bac033] (02/19) Accurately ripped
16 [8dc57fdc] (02/19) Accurately ripped
17 [b022f8cd] (02/19) Accurately ripped
18 [da912af4] (03/20) Accurately ripped
19 [89c56dc6] (03/20) Accurately ripped
Offsetted by 205:
01 [ea0de1e8] (03/19) Accurately ripped
02 [0e61fe2c] (03/19) Accurately ripped
03 [3dd86b2d] (03/19) Accurately ripped
04 [aab1fb19] (03/19) Accurately ripped
05 [4d1f1879] (03/19) Accurately ripped
06 [44f31524] (03/19) Accurately ripped
07 [fbe15a3b] (03/19) Accurately ripped
08 [8539f9b9] (03/19) Accurately ripped
09 [442b913f] (03/19) Accurately ripped
10 [1d6d15d7] (03/19) Accurately ripped
11 [a83d051c] (03/19) Accurately ripped
12 [a23e511a] (03/19) Accurately ripped
13 [24f87e56] (03/19) Accurately ripped
14 [429bf8cd] (03/19) Accurately ripped
15 [16a30757] (03/19) Accurately ripped
16 [1a86a6e8] (03/19) Accurately ripped
17 [3073bfeb] (03/19) Accurately ripped
18 [5d798702] (03/20) Accurately ripped
19 [45fca6a4] (03/20) Accurately ripped
Offsetted by 869:
01 [26e66398] (00/19) No match (V2 was not tested)
02 [d8d3fb74] (00/19) No match (V2 was not tested)
03 [05d8c09d] (00/19) No match (V2 was not tested)
04 [d5a449f9] (00/19) No match (V2 was not tested)
05 [8600dca1] (00/19) No match (V2 was not tested)
06 [9bad65a4] (00/19) No match (V2 was not tested)
07 [6281112b] (00/19) No match (V2 was not tested)
08 [952c19d1] (00/19) No match (V2 was not tested)
09 [1b4a3717] (00/19) No match (V2 was not tested)
10 [3a405c87] (00/19) No match (V2 was not tested)
11 [3a3ba4cc] (00/19) No match (V2 was not tested)
12 [f5fb2e2a] (00/19) No match (V2 was not tested)
13 [74474bbe] (00/19) No match (V2 was not tested)
14 [d588839d] (00/19) No match (V2 was not tested)
15 [0fe7de87] (00/19) No match (V2 was not tested)
16 [628cbbf8] (00/19) No match (V2 was not tested)
17 [73474693] (00/19) No match (V2 was not tested)
18 [35e812ea] (00/20) No match (V2 was not tested)
19 [d12eea4c] (00/20) No match (V2 was not tested)

Track Peak [ CRC32 ] [W/O NULL] [ LOG ]
– 92,9 [485FD311] [B91C1FFE] CRC32
01 83,0 [B8492D82] [11B98D89]
02 88,7 [CE30113A] [05F881BF]
03 90,1 [59824D56] [9A017A7F]
04 88,8 [8623C7C7] [26C59831]
05 88,4 [F7C355CA] [72384866]
06 86,5 [A8B62B63] [A32710C8]
07 88,4 [B9ED7616] [3B31660A]
08 89,1 [875A3D16] [9BEC95B9]
09 81,3 [504A377F] [CA5EC854]
10 89,1 [259AD6FF] [2959E4A9]
11 89,1 [DD5C5948] [240E0B16]
12 88,6 [E93E6EC2] [8CDE76A8]
13 88,4 [7AD152D3] [EAB35A9E]
14 91,7 [DBFF9313] [1084BCFF]
15 90,1 [9EC732CE] [57D9296C]
16 92,9 [52DE2447] [1AD89E6E]
17 89,8 [5DD06E39] [DFABBC82]
18 88,7 [9EB5F5B4] [240A9B8A]
19 88,4 [E70081E6] [E763AA10]


Buddy Holly & The Picks - Millenium Collection (1999)

All thanks go to the original releaser

Buddy Holly in my Blog

Download Buddy Holly & The Picks - Millenium Collection (1999):