Subcategories

Buffy Sainte-Marie - Medicine Songs (2017)

Posted By: SERTiL
Buffy Sainte-Marie - Medicine Songs (2017)

Buffy Sainte-Marie - Medicine Songs
Folk Rock, Singer-Songwriter | WEB FLAC (tracks) & front cover | 74:53 min | 494 MB
Label: True North Records | Tracks: 20 | Rls.date: 2017

Coming off her critically acclaimed, Polaris prize winning 2015 album Power in the Blood, and after winning the 2016 spirit of Americana Award, Buffy Sainte-Marie has delivered her new album Medicine Songs - and has made it her mission to educate and inform the world using her strongest tool - her music, by - in her own words - "putting the songs to work".

The album starts with the new unreleased collaboration with fellow Polaris prize winning indigenous artist Tanya Tagaq, followed by the politically charged "The War Racket." There are also new recordings of some of the most powerful songs Buffy's ever written, including "Bury My Heart at Wounded Knee," "Starwalker," timeless protest classics like "Universal Soldier," "Now That the Buffalo's Gone," and "Little Wheel Spin and Spin," as well as forgotten gems that were simply ahead of their time when first released, like the shimmery, eye-opening "Priests of the Golden Bull," and the chillingly prescient "Disinformation."

Tracklist:
1. You Got To Run (Spirit Of The Wind) (3:42)
2. The War Racket (4:00)
3. Starwalker (3:04)
4. My Country 'tis Of Thy People You're Dying (5:35)
5. America The Beautiful (2:54)
6. Carry It On (2:59)
7. Little Wheel Spin And Spin (2:58)
8. No No Keshagesh (4:44)
9. Soldier Blue (3:42)
10. The Preists Of The Golden Bull (4:05)
11. Bury My Heart At Wounded Knee (4:33)
12. Universal Soldier (2:41)
13. Power In The Blood (4:05)
14. Disinformation (3:44)
15. Fallen Angels (3:45)
16. Now That The Buffalo's Gone (2:45)
17. Generation (4:01)
18. Working For The Government (3:34)
19. The Big Ones Get Away (4:06)
20. The War Racket (Unplugged) (3:57)

PERFORMER: auCDtect Task Manager, ver. 1.5.1RC6 build 1.5.1.7
Copyright © 2008-2010 y-soft. All rights reserved

ANALYZER: auCDtect: CD records authenticity detector, version 0.8.2
Copyright © 2004 Oleg Berngardt. All rights reserved.
Copyright © 2004 Alexander Djourik. All rights reserved.


FILE: 01 - You Got To Run (Spirit Of The Wind).flac
Size: 27783021 Hash: 60620EDE8440ED3EC7A364D75F3A560A Accuracy: -m40
Conclusion: CDDA 100%
Signature: 44CA2AC8605BA7BDAD90B0432B223C01BDBC7727
FILE: 02 - The War Racket.flac
Size: 25253536 Hash: C0EA154A3F9303F3906E8551051E0CBA Accuracy: -m40
Conclusion: CDDA 100%
Signature: 3EBE843B0D4FE5F768FC1494E2D45D0B01B758FB
FILE: 03 - Starwalker.flac
Size: 23700547 Hash: 548023F649A94D83571A55B93706B411 Accuracy: -m40
Conclusion: CDDA 100%
Signature: 7CDA0E1EDEC80C66CA8D1A11185E493E32A681BC
FILE: 04 - My Country 'tis Of Thy People You're Dying.flac
Size: 36902960 Hash: 856561533613EADE5955ED0F43C96422 Accuracy: -m40
Conclusion: CDDA 100%
Signature: 8769198F654EDDFB3BCAC532B4289E5F4B3BEE1C
FILE: 05 - America The Beautiful.flac
Size: 17883747 Hash: 580149FBD69E81556DB42259FDEA602A Accuracy: -m40
Conclusion: CDDA 100%
Signature: 932272F9DC4B60F8A0DDD2B734E941BDFE6A700B
FILE: 06 - Carry It On.flac
Size: 21445510 Hash: BC077AC199DE1993DA079590A01076E3 Accuracy: -m40
Conclusion: CDDA 100%
Signature: F5AF6A1CF5BDB12675B5AE9624579AF763BFA579
FILE: 07 - Little Wheel Spin And Spin.flac
Size: 17993002 Hash: 834461BDA1FD629418072E3BE341A1FF Accuracy: -m40
Conclusion: CDDA 100%
Signature: 0BB90B0C219E64A9F53780809B934DD777882677
FILE: 08 - No No Keshagesh.flac
Size: 34782856 Hash: 27E216E96B4E20D34C5D105BEB5B1688 Accuracy: -m40
Conclusion: CDDA 100%
Signature: 2188755982393A907E9CAD545D10247244D0BA5A
FILE: 09 - Soldier Blue.flac
Size: 24955832 Hash: 22E17191BBD7DE4CDE965295AE7B70B6 Accuracy: -m40
Conclusion: CDDA 100%
Signature: F22D4B1808091BCB30F87D9129070221825151DA
FILE: 10 - The Preists Of The Golden Bull.flac
Size: 26518077 Hash: 69EDFA99BA9798623124F7DA343A186E Accuracy: -m40
Conclusion: CDDA 100%
Signature: A4AE2C3082B519CEB5ADC646F72B64E767A92BEC
FILE: 11 - Bury My Heart At Wounded Knee.flac
Size: 34966777 Hash: E96D9764F8D19D2E15DFC48F15B79123 Accuracy: -m40
Conclusion: CDDA 100%
Signature: 3ED0F09BD6773E4FFE79C3CC3DF04ED056B6D247
FILE: 12 - Universal Soldier.flac
Size: 17906625 Hash: 1BD0B06E2AD926224626E53F1411EACB Accuracy: -m40
Conclusion: CDDA 100%
Signature: 8E15A2DDFB1A161E5A72D257E2AA0C8D2BE46B2C
FILE: 13 - Power In The Blood.flac
Size: 29527422 Hash: 931A5365316BE2C3C69235E5B511D182 Accuracy: -m40
Conclusion: CDDA 100%
Signature: 65536E2DC7E79DD96905F30D9AF67E5C701DE4DD
FILE: 14 - Disinformation.flac
Size: 25753723 Hash: F732E9F2AF0802BF710476B0859E0063 Accuracy: -m40
Conclusion: CDDA 49%
Signature: D42A6A61E49B780CFDE5FE52C0490F86FAEDF357
FILE: 15 - Fallen Angels.flac
Size: 27414891 Hash: 3973C41057B1E01E97388CE0B5BF2FDF Accuracy: -m40
Conclusion: CDDA 100%
Signature: CA20EE596EAB11853210511E3EF9A94311898F78
FILE: 16 - Now That The Buffalo's Gone.flac
Size: 18437044 Hash: 3DE674E4A2FA0B3A4025596224CFE216 Accuracy: -m40
Conclusion: CDDA 100%
Signature: 7EF4D62458BC43B191CEFBBEB81A125846B34740
FILE: 17 - Generation.flac
Size: 30860222 Hash: F9A60F48FF87AFBB1DD06B27BCB3809D Accuracy: -m40
Conclusion: CDDA 100%
Signature: E20F4433BA274F90B8910BE6BE3FB711745C6F75
FILE: 18 - Working For The Government.flac
Size: 25233025 Hash: BE231529F55297C437504C3F68F0BBEF Accuracy: -m40
Conclusion: CDDA 100%
Signature: 93148D879018EB639D70EECC97885EFD058C1720
FILE: 19 - The Big Ones Get Away.flac
Size: 26169120 Hash: A8491AE7159BD1DAFBB1C750664D1E7E Accuracy: -m40
Conclusion: CDDA 100%
Signature: 29A3E69367ECDAEDAE3BB023D835B12ECAFE05FB
FILE: 20 - The War Racket (Unplugged).flac
Size: 24397599 Hash: 09A9C466A8F2ED3E05DF22B039A1AFF3 Accuracy: -m40
Conclusion: CDDA 100%
Signature: F3A13296A433BE435764F6AACCD86A3A70DBF81B

foobar2000 1.3.7 / Dynamic Range Meter 1.1.1
log date: 2017-11-10 17:16:48

––––––––––––––––––––––––––––––––––––––––
Analyzed: Buffy Sainte-Marie / Medicine Songs
––––––––––––––––––––––––––––––––––––––––

DR Peak RMS Duration Track
––––––––––––––––––––––––––––––––––––––––
DR6 -0.82 dB -9.46 dB 3:42 01-You Got To Run (Spirit Of The Wind)
DR9 -0.83 dB -12.59 dB 4:00 02-The War Racket
DR6 -0.81 dB -8.49 dB 3:04 03-Starwalker
DR9 -0.87 dB -11.73 dB 5:36 04-My Country 'tis Of Thy People You're Dying
DR8 -0.93 dB -11.04 dB 2:55 05-America The Beautiful
DR5 -0.82 dB -8.31 dB 3:00 06-Carry It On
DR9 -1.05 dB -12.20 dB 2:58 07-Little Wheel Spin And Spin
DR6 -0.82 dB -8.89 dB 4:44 08-No No Keshagesh
DR8 -0.82 dB -11.73 dB 3:42 09-Soldier Blue
DR7 -0.82 dB -10.46 dB 4:06 10-The Preists Of The Golden Bull
DR4 -0.82 dB -7.35 dB 4:34 11-Bury My Heart At Wounded Knee
DR10 -0.82 dB -12.55 dB 2:41 12-Universal Soldier
DR5 -0.82 dB -7.89 dB 4:06 13-Power In The Blood
DR8 -0.99 dB -10.53 dB 3:44 14-Disinformation
DR6 -0.82 dB -9.25 dB 3:45 15-Fallen Angels
DR10 -0.82 dB -12.22 dB 2:46 16-Now That The Buffalo's Gone
DR5 -0.87 dB -7.61 dB 4:02 17-Generation
DR4 -0.84 dB -6.17 dB 3:34 18-Working For The Government
DR8 -0.93 dB -10.69 dB 4:07 19-The Big Ones Get Away
DR10 -0.92 dB -12.02 dB 3:57 20-The War Racket (Unplugged)
––––––––––––––––––––––––––––––––––––––––

Number of tracks: 20
Official DR value: DR7

Samplerate: 44100 Hz
Channels: 2
Bits per sample: 16
Bitrate: 810 kbps
Codec: FLAC
================================================================================


Thanks to the Original customer.