Tags
Language
Tags

Coheed And Cambria - The Color Before The Sun (Best Buy Exclusive) (2015) {300 Entertainment}

Posted By: TestTickles
Coheed And Cambria - The Color Before The Sun (Best Buy Exclusive) (2015) {300 Entertainment}

Coheed And Cambria - The Color Before The Sun (Best Buy Exclusive) (2015) {300 Entertainment}
EAC Rip | FLAC with CUE and log | scans | 379 mb
MP3 CBR 320 kbps | RAR | 123 mb
Genre: progressive rock

The Color Before The Sun is the 2015 album by Coheed And Cambria. Released by 300 Entertainment, this Best Buy pressing features two demos originally not found elsewhere.

Coheed And Cambria - The Color Before The Sun (Best Buy Exclusive) (2015) {300 Entertainment}

01. Island
02. You Got Spirit, Kid
03. Eraser
04. Colors
05. Here To Mars
06. Ghost
07. Atlas
08. Young Love
09. The Audience
10. Peace To The Mountain
11. Bridge And Tunnel (Demo)
12. Eraser (Demo)

Claudio Sanchez-lead & backing vocals, rhythm guitar, synth, percussion
Travis Stever-lead guitar, backing vocals
Zach Cooper-bass, backing vocals
Joshua Eppard-drums, percussion, backing vocals

Jay Joyce-Rhodes piano,
Jennifer Kummer-horn
Mike Haynes-trumpet
Roy Agee-trombone
Avery Bright-strings
Eleonore Denig-strings
Melodie Morris-strings
Chondra Sanchez-backing vocals


Produced by Jay Joyce
Mixed by Jason Hall & Jay Joyce
Mastered by Ted Jensen

X Lossless Decoder version 20141129a (148.2)

XLD extraction logfile from 2015-12-21 10:38:18 -0400

Coheed And Cambria / The Color Before The Sun

Used drive : MATSHITA DVD-R UJ-857E (revision ZA0E)
Media type : Pressed CD

Ripper mode : XLD Secure Ripper
Disable audio cache : OK for the drive with a cache less than 1375KiB
Make use of C2 pointers : NO
Read offset correction : 102
Max retry count : 20
Gap status : Analyzed, Appended (except HTOA)

TOC of the extracted CD
Track | Start | Length | Start sector | End sector
––––––––––––––––––––––––––––-
1 | 00:00:00 | 05:01:68 | 0 | 22642
2 | 05:01:68 | 03:52:74 | 22643 | 40116
3 | 08:54:67 | 04:41:36 | 40117 | 61227
4 | 13:36:28 | 04:01:06 | 61228 | 79308
5 | 17:37:34 | 02:45:06 | 79309 | 91689
6 | 20:22:40 | 06:03:19 | 91690 | 118933
7 | 26:25:59 | 03:50:47 | 118934 | 136230
8 | 30:16:31 | 04:11:15 | 136231 | 155070
9 | 34:27:46 | 06:10:55 | 155071 | 182875
10 | 40:38:26 | 06:33:34 | 182876 | 212384
11 | 47:11:60 | 04:36:27 | 212385 | 233111
12 | 51:48:12 | 03:42:32 | 233112 | 249793

AccurateRip Summary
Disc not found in AccurateRip DB.

All Tracks
Album gain : -10.34 dB
Peak : 1.000000
Statistics
Read error : 0
Jitter error (maybe fixed) : 0
Retry sector count : 0
Damaged sector count : 0

Track 01
Filename : /cuntfist/FLAC/Coheed And Cambria - The Color Before The Sun (Best Buy Exclusive) (2015) [FLAC] {300 Entertainment}/01 - Island.flac
Pre-gap length : 00:02:00

Track gain : -11.30 dB
Peak : 1.000000
CRC32 hash (test run) : A4A47576
CRC32 hash : A4A47576
CRC32 hash (skip zero) : 856F09F1
AccurateRip v1 signature : 57DB733E
AccurateRip v2 signature : DEFDEB7E
->Track not present in AccurateRip database.
Statistics
Read error : 0
Jitter error (maybe fixed) : 0
Retry sector count : 0
Damaged sector count : 0

Track 02
Filename : /cuntfist/FLAC/Coheed And Cambria - The Color Before The Sun (Best Buy Exclusive) (2015) [FLAC] {300 Entertainment}/02 - Eraser.flac

Track gain : -10.98 dB
Peak : 1.000000
CRC32 hash (test run) : 6C9531F1
CRC32 hash : 6C9531F1
CRC32 hash (skip zero) : 3908C7CC
AccurateRip v1 signature : 19BEF981
AccurateRip v2 signature : 1922FD58
->Track not present in AccurateRip database.
Statistics
Read error : 0
Jitter error (maybe fixed) : 0
Retry sector count : 0
Damaged sector count : 0

Track 03
Filename : /cuntfist/FLAC/Coheed And Cambria - The Color Before The Sun (Best Buy Exclusive) (2015) [FLAC] {300 Entertainment}/03 - Colors.flac

Track gain : -9.38 dB
Peak : 1.000000
CRC32 hash (test run) : F9F36E80
CRC32 hash : F9F36E80
CRC32 hash (skip zero) : B3E0C9CD
AccurateRip v1 signature : D2A4B47B
AccurateRip v2 signature : D9A3D0C3
->Track not present in AccurateRip database.
Statistics
Read error : 0
Jitter error (maybe fixed) : 0
Retry sector count : 0
Damaged sector count : 0

Track 04
Filename : /cuntfist/FLAC/Coheed And Cambria - The Color Before The Sun (Best Buy Exclusive) (2015) [FLAC] {300 Entertainment}/04 - Here To Mars.flac

Track gain : -10.47 dB
Peak : 1.000000
CRC32 hash (test run) : E5F10BB9
CRC32 hash : E5F10BB9
CRC32 hash (skip zero) : 86BCAD92
AccurateRip v1 signature : ED8C8448
AccurateRip v2 signature : F4C0948D
->Track not present in AccurateRip database.
Statistics
Read error : 0
Jitter error (maybe fixed) : 0
Retry sector count : 0
Damaged sector count : 0

Track 05
Filename : /cuntfist/FLAC/Coheed And Cambria - The Color Before The Sun (Best Buy Exclusive) (2015) [FLAC] {300 Entertainment}/05 - Ghost.flac

Track gain : -4.40 dB
Peak : 0.962006
CRC32 hash (test run) : 6A4D56FB
CRC32 hash : 6A4D56FB
CRC32 hash (skip zero) : 6B4EC459
AccurateRip v1 signature : 9E825544
AccurateRip v2 signature : 916E83B4
->Track not present in AccurateRip database.
Statistics
Read error : 0
Jitter error (maybe fixed) : 0
Retry sector count : 0
Damaged sector count : 0

Track 06
Filename : /cuntfist/FLAC/Coheed And Cambria - The Color Before The Sun (Best Buy Exclusive) (2015) [FLAC] {300 Entertainment}/06 - Atlas.flac

Track gain : -10.59 dB
Peak : 1.000000
CRC32 hash (test run) : E92ED5BF
CRC32 hash : E92ED5BF
CRC32 hash (skip zero) : 069C00BB
AccurateRip v1 signature : 611F8214
AccurateRip v2 signature : EF4304FE
->Track not present in AccurateRip database.
Statistics
Read error : 0
Jitter error (maybe fixed) : 0
Retry sector count : 0
Damaged sector count : 0

Track 07
Filename : /cuntfist/FLAC/Coheed And Cambria - The Color Before The Sun (Best Buy Exclusive) (2015) [FLAC] {300 Entertainment}/07 - Young Love.flac

Track gain : -9.29 dB
Peak : 1.000000
CRC32 hash (test run) : 7C36A513
CRC32 hash : 7C36A513
CRC32 hash (skip zero) : AF0CD7D6
AccurateRip v1 signature : 372AAB8A
AccurateRip v2 signature : BDEB9181
->Track not present in AccurateRip database.
Statistics
Read error : 0
Jitter error (maybe fixed) : 0
Retry sector count : 0
Damaged sector count : 0

Track 08
Filename : /cuntfist/FLAC/Coheed And Cambria - The Color Before The Sun (Best Buy Exclusive) (2015) [FLAC] {300 Entertainment}/08 - You've Got Spirit, Kid.flac

Track gain : -10.41 dB
Peak : 1.000000
CRC32 hash (test run) : 1ABFB6F6
CRC32 hash : 1ABFB6F6
CRC32 hash (skip zero) : E19786DC
AccurateRip v1 signature : 9F256330
AccurateRip v2 signature : A8E0424F
->Track not present in AccurateRip database.
Statistics
Read error : 0
Jitter error (maybe fixed) : 0
Retry sector count : 0
Damaged sector count : 0

Track 09
Filename : /cuntfist/FLAC/Coheed And Cambria - The Color Before The Sun (Best Buy Exclusive) (2015) [FLAC] {300 Entertainment}/09 - The Audience.flac

Track gain : -10.16 dB
Peak : 1.000000
CRC32 hash (test run) : 3E53E114
CRC32 hash : 3E53E114
CRC32 hash (skip zero) : 83048925
AccurateRip v1 signature : F9E6697C
AccurateRip v2 signature : 3B89FA36
->Track not present in AccurateRip database.
Statistics
Read error : 0
Jitter error (maybe fixed) : 0
Retry sector count : 0
Damaged sector count : 0

Track 10
Filename : /cuntfist/FLAC/Coheed And Cambria - The Color Before The Sun (Best Buy Exclusive) (2015) [FLAC] {300 Entertainment}/10 - Peace To The Mountain.flac

Track gain : -7.73 dB
Peak : 1.000000
CRC32 hash (test run) : 1CC27A57
CRC32 hash : 1CC27A57
CRC32 hash (skip zero) : 5BAA8F56
AccurateRip v1 signature : CE22D3E6
AccurateRip v2 signature : 89DA0BF8
->Track not present in AccurateRip database.
Statistics
Read error : 0
Jitter error (maybe fixed) : 0
Retry sector count : 0
Damaged sector count : 0

Track 11
Filename : /cuntfist/FLAC/Coheed And Cambria - The Color Before The Sun (Best Buy Exclusive) (2015) [FLAC] {300 Entertainment}/11 - Bridge and Tunnel (Demo).flac

Track gain : -9.79 dB
Peak : 1.000000
CRC32 hash (test run) : F79E7FF7
CRC32 hash : F79E7FF7
CRC32 hash (skip zero) : EA105DFE
AccurateRip v1 signature : 28CD5AC6
AccurateRip v2 signature : 4AAAB9C0
->Track not present in AccurateRip database.
Statistics
Read error : 0
Jitter error (maybe fixed) : 0
Retry sector count : 0
Damaged sector count : 0

Track 12
Filename : /cuntfist/FLAC/Coheed And Cambria - The Color Before The Sun (Best Buy Exclusive) (2015) [FLAC] {300 Entertainment}/12 - Eraser (Demo).flac

Track gain : -9.24 dB
Peak : 0.999969
CRC32 hash (test run) : 15653563
CRC32 hash : 15653563
CRC32 hash (skip zero) : 64000629
AccurateRip v1 signature : A7F4D922
AccurateRip v2 signature : 46412F2D
->Track not present in AccurateRip database.
Statistics
Read error : 0
Jitter error (maybe fixed) : 0
Retry sector count : 0
Damaged sector count : 0

No errors occurred

End of status report

––-BEGIN XLD SIGNATURE––-
ZibuWpEVC0Qxvut134d_ROFrIzPD30qRNIe7Y4YQThsO8vBt.V_4pSyeNOMMh_Np737U4iDAhaQ7W1CuFWZ6CxV6jGb75WUFo8qqPGy
––-END XLD SIGNATURE––-


Coheed And Cambria - The Color Before The Sun (Best Buy Exclusive) (2015) {300 Entertainment}


Thank you to the original uploader.