Subcategories

Common - One Day It'll All Make Sense (1997) {Relativity}

Posted By: TestTickles
Common - One Day It'll All Make Sense (1997) {Relativity}

Common - One Day It'll All Make Sense (1997) {Relativity}
EAC Rip | FLAC with CUE and log | scans | 532 mb
MP3 CBR 320kbps | RAR | 273 mb
Genre: hip-hop, rap

One Day It'll All Make Sense is the 1997 album by Lonnie Lynn Jr., who is better known as Common Sense but this was his first album released under the name Common. This was his third album, released on 30 September, 1997 and his last for Relativity and features the hit songs "Retrospect For Life", "Reminding Me (Of Sef)" and "All Night Long".

Common - One Day It'll All Make Sense (1997) {Relativity}

01. Introspective
02. Invocation
03. Real Nigga Quotes
04. Retrospect For Life
05. Gettin' Down At The Amphitheater
06. Food For Funk
07. G.O.D. (Gaining One's Definition)
08. My City
09. Hungry
10. All Night Long
11. Stolen Moments Pt. I
12. Stolen Moments Pt. II
13. 1'2 Many…
14. Stolen Moments Pt. III
15. Making A Name For Ourselves
16. Reminding Me (Of Sef)
17. Pop's Rap Part 2/Fatherhood

Common-raps

Lauryn Hill-vocals (track 4)
De La Soul-raps (track 5)
Cee-Lo-raps (track 7)
Erykah Badu-vocals (track 10
Black Thought-rap (track 12)
Q-Tip-rap (track 14)
Canibus-rap (track 15)
Chantay Savage-vocals (track 16)
Lonnie "Pops" Lynn-spoken word (track 17)

Tracks 1-2, 5-6, 9, 11-12, 14-15 produced by No I.D., tracks 4 & 7 co-produced by No I.D.
Tracks 3 & 13 produced by Dug Infinite
Track 4 co-produced by James Poyser
Track 8 produced by Spike Rebel, track 7 co-produced by Spike Rebel
Track 10 produced by The Roots
Track 16 produced by Ynot
Track 17 produced by Karriem Riggins

Mastered by Tom Coyne

Common - One Day It'll All Make Sense (1997) {Relativity}


EAC extraction logfile from 4. June 2017, 23:46 for CD
Common / One Day It'll All Make Sense

Used drive : TSSTcorpDVD+-RW TS-H653B Adapter: 2 ID: 0
Read mode : Secure with NO C2, accurate stream, disable cache
Read offset correction : 6
Overread into Lead-In and Lead-Out : No

Used output format : Internal WAV Routines
44.100 Hz; 16 Bit; Stereo

Other options :
Fill up missing offset samples with silence : Yes
Delete leading and trailing silent blocks : No
Native Win32 interface for Win NT & 2000


Track 1
Filename C:\Documents and Settings\cuntfist\Desktop\FLAC's\Common - One Day It'll All Make Sense (1997) [FLAC] {Relativity}\01 - Introspective.wav

Pre-gap length 0:00:02.00

Peak level 53.0 %
Track quality 99.8 %
Test CRC E7884EEF
Copy CRC E7884EEF
Copy OK

Track 2
Filename C:\Documents and Settings\cuntfist\Desktop\FLAC's\Common - One Day It'll All Make Sense (1997) [FLAC] {Relativity}\02 - Invocation.wav

Peak level 97.6 %
Track quality 100.0 %
Test CRC D7FA840C
Copy CRC D7FA840C
Copy OK

Track 3
Filename C:\Documents and Settings\cuntfist\Desktop\FLAC's\Common - One Day It'll All Make Sense (1997) [FLAC] {Relativity}\03 - Real Nigga Quotes.wav

Peak level 97.6 %
Track quality 100.0 %
Test CRC 3D8AA996
Copy CRC 3D8AA996
Copy OK

Track 4
Filename C:\Documents and Settings\cuntfist\Desktop\FLAC's\Common - One Day It'll All Make Sense (1997) [FLAC] {Relativity}\04 - Retrospect For Life.wav

Peak level 97.6 %
Track quality 100.0 %
Test CRC 0CBDB9AB
Copy CRC 0CBDB9AB
Copy OK

Track 5
Filename C:\Documents and Settings\cuntfist\Desktop\FLAC's\Common - One Day It'll All Make Sense (1997) [FLAC] {Relativity}\05 - Gettin' Down At The Amphitheater.wav

Peak level 96.7 %
Track quality 100.0 %
Test CRC 9FEAB6DD
Copy CRC 9FEAB6DD
Copy OK

Track 6
Filename C:\Documents and Settings\cuntfist\Desktop\FLAC's\Common - One Day It'll All Make Sense (1997) [FLAC] {Relativity}\06 - Food For Funk.wav

Peak level 97.6 %
Track quality 100.0 %
Test CRC 15EAC59C
Copy CRC 15EAC59C
Copy OK

Track 7
Filename C:\Documents and Settings\cuntfist\Desktop\FLAC's\Common - One Day It'll All Make Sense (1997) [FLAC] {Relativity}\07 - G.O.D. (Gaining One's Definition).wav

Pre-gap length 0:00:00.96

Peak level 97.6 %
Track quality 100.0 %
Test CRC AF9A2726
Copy CRC AF9A2726
Copy OK

Track 8
Filename C:\Documents and Settings\cuntfist\Desktop\FLAC's\Common - One Day It'll All Make Sense (1997) [FLAC] {Relativity}\08 - My City.wav

Pre-gap length 0:00:00.04

Peak level 91.2 %
Track quality 100.0 %
Test CRC A10CD049
Copy CRC A10CD049
Copy OK

Track 9
Filename C:\Documents and Settings\cuntfist\Desktop\FLAC's\Common - One Day It'll All Make Sense (1997) [FLAC] {Relativity}\09 - Hungry.wav

Peak level 87.7 %
Track quality 100.0 %
Test CRC D92D156A
Copy CRC D92D156A
Copy OK

Track 10
Filename C:\Documents and Settings\cuntfist\Desktop\FLAC's\Common - One Day It'll All Make Sense (1997) [FLAC] {Relativity}\10 - All Night Long.wav

Peak level 97.6 %
Track quality 100.0 %
Test CRC 51E989ED
Copy CRC 51E989ED
Copy OK

Track 11
Filename C:\Documents and Settings\cuntfist\Desktop\FLAC's\Common - One Day It'll All Make Sense (1997) [FLAC] {Relativity}\11 - Stolen Moments Pt. I.wav

Pre-gap length 0:00:00.04

Peak level 97.6 %
Track quality 100.0 %
Test CRC 0E87CF01
Copy CRC 0E87CF01
Copy OK

Track 12
Filename C:\Documents and Settings\cuntfist\Desktop\FLAC's\Common - One Day It'll All Make Sense (1997) [FLAC] {Relativity}\12 - Stolen Moments Pt. II.wav

Peak level 97.6 %
Track quality 99.9 %
Test CRC 9BA5D019
Copy CRC 9BA5D019
Copy OK

Track 13
Filename C:\Documents and Settings\cuntfist\Desktop\FLAC's\Common - One Day It'll All Make Sense (1997) [FLAC] {Relativity}\13 - 1'2 Many….wav

Peak level 97.6 %
Track quality 100.0 %
Test CRC 9D33B8FD
Copy CRC 9D33B8FD
Copy OK

Track 14
Filename C:\Documents and Settings\cuntfist\Desktop\FLAC's\Common - One Day It'll All Make Sense (1997) [FLAC] {Relativity}\14 - Stolen Moments Pt. III.wav

Peak level 97.6 %
Track quality 100.0 %
Test CRC 92C28F65
Copy CRC 92C28F65
Copy OK

Track 15
Filename C:\Documents and Settings\cuntfist\Desktop\FLAC's\Common - One Day It'll All Make Sense (1997) [FLAC] {Relativity}\15 - Making A Name For Ourselves.wav

Peak level 97.6 %
Track quality 100.0 %
Test CRC 6D746AF2
Copy CRC 6D746AF2
Copy OK

Track 16
Filename C:\Documents and Settings\cuntfist\Desktop\FLAC's\Common - One Day It'll All Make Sense (1997) [FLAC] {Relativity}\16 - Reminding Me (Of Sef).wav

Peak level 97.6 %
Track quality 100.0 %
Test CRC DEE18405
Copy CRC DEE18405
Copy OK

Track 17
Filename C:\Documents and Settings\cuntfist\Desktop\FLAC's\Common - One Day It'll All Make Sense (1997) [FLAC] {Relativity}\17 - Pop's Rap Part 2,Fatherhood.wav

Peak level 97.6 %
Track quality 100.0 %
Test CRC 4CF6539D
Copy CRC 4CF6539D
Copy OK

No errors occured


End of status report


Common - One Day It'll All Make Sense (1997) {Relativity}