Subcategories

Common - Like Water For Chocolate (2000) {MCA}

Posted By: TestTickles
Common - Like Water For Chocolate (2000) {MCA}

Common - Like Water For Chocolate (2000) {MCA}
EAC Rip | FLAC with CUE and log | scans | 575 mb
MP3 CBR 320kbps | RAR | 269 mb
Genre: hip-hop, rap

Like Water For Chocolat is the 2000 album by Lonnie Lynn, who is better known as Chicago rapper Common. This is his 4th album and first for a major label, MCA, This features the hit songs "Geto Heaven", "The 6th Sence" and "The Light". This was released by MCA on 28 March, 2000.

Common - Like Water For Chocolate (2000) {MCA}

01. Time Travelin' (A Tribute To Fela)
02. Heat
03. Cold Blooded
04. Dooinit
05. The Light
06. Funky For You
07. The Questions
08. Tiem Travelin' Reprise
09. The 6th Sense
10. A Film Called (Pimp)
11. Nag Champa (Afrodisiac For The World)
12. Thelonius
13. Payback Is A Grandmother
14. Geto Heaven Part Two
15. A Song For Assata
16. Pop's Rap III…All My Children

Track 1 featuring Vinia Mojica, Roy Hargrove & Femi Kuti
Track 3 featuring Rahzel The Godfather Of Noyze, Roy Hargrove & Black Thought
Track 6 featuring Bilal & Jill Scott
Track 9 featuring Bilal
Track 10 featuring Bilal & MC Lyte
Track 12 featuring Slum Village
Track 14 featuring D'Angelo
Track 15 featuring Cee-Lo
Track 16 featuring Lonnie "Pops" Lynn

Tracks 1, 3, 8 & 14 co-produced by D'Angelo
Tracks 1, 3, 8 & 14 co-produced by ?uestlove
Track 15 produced by James Poyser, tracks 1, 6-8 & 14 co-produced by James Poyser
Tracks 2, 4-6, 10-13 produced by Jay Dee (aka J Dilla), tracks 1, 6-8 co-produced by Jay Dee (aka J Dilla)
Track 3 co-produced by Kelo
Track 9 produced by DJ Premier
Track 16 produced by Karriem Riggins

Mastered by Ton Coyne

Common - Like Water For Chocolate (2000) {MCA}


EAC extraction logfile from 5. June 2017, 0:13 for CD
Common / Like Water For Chocolate

Used drive : TSSTcorpDVD+-RW TS-H653B Adapter: 2 ID: 0
Read mode : Secure with NO C2, accurate stream, disable cache
Read offset correction : 6
Overread into Lead-In and Lead-Out : No

Used output format : Internal WAV Routines
44.100 Hz; 16 Bit; Stereo

Other options :
Fill up missing offset samples with silence : Yes
Delete leading and trailing silent blocks : No
Native Win32 interface for Win NT & 2000


Track 1
Filename C:\Documents and Settings\cuntfist\Desktop\FLAC's\Common - Like Water For Chocolate (2000) [FLAC] {MCA}\01 - Time Travelin' (A Tribute To Fela).wav

Pre-gap length 0:00:02.00

Peak level 100.0 %
Track quality 100.0 %
Test CRC 214CB130
Copy CRC 214CB130
Copy OK

Track 2
Filename C:\Documents and Settings\cuntfist\Desktop\FLAC's\Common - Like Water For Chocolate (2000) [FLAC] {MCA}\02 - Heat.wav

Pre-gap length 0:00:41.60

Peak level 100.0 %
Track quality 99.9 %
Test CRC 67B641E4
Copy CRC 67B641E4
Copy OK

Track 3
Filename C:\Documents and Settings\cuntfist\Desktop\FLAC's\Common - Like Water For Chocolate (2000) [FLAC] {MCA}\03 - Cold Blooded.wav

Peak level 100.0 %
Track quality 100.0 %
Test CRC 65C3702D
Copy CRC 65C3702D
Copy OK

Track 4
Filename C:\Documents and Settings\cuntfist\Desktop\FLAC's\Common - Like Water For Chocolate (2000) [FLAC] {MCA}\04 - Dooinit.wav

Peak level 100.0 %
Track quality 100.0 %
Test CRC FDC32B6C
Copy CRC FDC32B6C
Copy OK

Track 5
Filename C:\Documents and Settings\cuntfist\Desktop\FLAC's\Common - Like Water For Chocolate (2000) [FLAC] {MCA}\05 - The Light.wav

Peak level 100.0 %
Track quality 100.0 %
Test CRC 2E5A3A11
Copy CRC 2E5A3A11
Copy OK

Track 6
Filename C:\Documents and Settings\cuntfist\Desktop\FLAC's\Common - Like Water For Chocolate (2000) [FLAC] {MCA}\06 - Funky For You.wav

Pre-gap length 0:00:19.04

Peak level 100.0 %
Track quality 100.0 %
Test CRC BE01759F
Copy CRC BE01759F
Copy OK

Track 7
Filename C:\Documents and Settings\cuntfist\Desktop\FLAC's\Common - Like Water For Chocolate (2000) [FLAC] {MCA}\07 - The Questions.wav

Peak level 100.0 %
Track quality 100.0 %
Test CRC 055A5648
Copy CRC 055A5648
Copy OK

Track 8
Filename C:\Documents and Settings\cuntfist\Desktop\FLAC's\Common - Like Water For Chocolate (2000) [FLAC] {MCA}\08 - Tiem Travelin' Reprise.wav

Peak level 100.0 %
Track quality 100.0 %
Test CRC ED496B2C
Copy CRC ED496B2C
Copy OK

Track 9
Filename C:\Documents and Settings\cuntfist\Desktop\FLAC's\Common - Like Water For Chocolate (2000) [FLAC] {MCA}\09 - The 6th Sense.wav

Peak level 100.0 %
Track quality 100.0 %
Test CRC E6B8D9F1
Copy CRC E6B8D9F1
Copy OK

Track 10
Filename C:\Documents and Settings\cuntfist\Desktop\FLAC's\Common - Like Water For Chocolate (2000) [FLAC] {MCA}\10 - A Film Called (Pimp).wav

Pre-gap length 0:01:17.96

Peak level 100.0 %
Track quality 100.0 %
Test CRC 2C9A6244
Copy CRC 2C9A6244
Copy OK

Track 11
Filename C:\Documents and Settings\cuntfist\Desktop\FLAC's\Common - Like Water For Chocolate (2000) [FLAC] {MCA}\11 - Nag Champa (Afrodisiac For The World).wav

Pre-gap length 0:00:31.50

Peak level 100.0 %
Track quality 100.0 %
Test CRC 62C798B7
Copy CRC 62C798B7
Copy OK

Track 12
Filename C:\Documents and Settings\cuntfist\Desktop\FLAC's\Common - Like Water For Chocolate (2000) [FLAC] {MCA}\12 - Thelonius.wav

Peak level 100.0 %
Track quality 99.9 %
Test CRC 6F0EDE31
Copy CRC 6F0EDE31
Copy OK

Track 13
Filename C:\Documents and Settings\cuntfist\Desktop\FLAC's\Common - Like Water For Chocolate (2000) [FLAC] {MCA}\13 - Payback Is A Grandmother.wav

Pre-gap length 0:00:20.17

Peak level 100.0 %
Track quality 99.9 %
Test CRC E76EC7EF
Copy CRC E76EC7EF
Copy OK

Track 14
Filename C:\Documents and Settings\cuntfist\Desktop\FLAC's\Common - Like Water For Chocolate (2000) [FLAC] {MCA}\14 - Geto Heaven Part Two.wav

Peak level 100.0 %
Track quality 100.0 %
Test CRC 0C32924B
Copy CRC 0C32924B
Copy OK

Track 15
Filename C:\Documents and Settings\cuntfist\Desktop\FLAC's\Common - Like Water For Chocolate (2000) [FLAC] {MCA}\15 - A Song For Assata.wav

Pre-gap length 0:00:14.53

Peak level 100.0 %
Track quality 99.9 %
Test CRC 52914511
Copy CRC 52914511
Copy OK

Track 16
Filename C:\Documents and Settings\cuntfist\Desktop\FLAC's\Common - Like Water For Chocolate (2000) [FLAC] {MCA}\16 - Pop's Rap III…All My Children.wav

Peak level 100.0 %
Track quality 100.0 %
Test CRC F0C30468
Copy CRC F0C30468
Copy OK

No errors occured


End of status report


Common - Like Water For Chocolate (2000) {MCA}