Tags
Language
Tags

California Transit Authority - Full Circle (2007) **[RE-UP]**

Posted By:
California Transit Authority - Full Circle (2007) **[RE-UP]**

California Transit Authority - Full Circle (2007)
EAC Rip | FLAC with CUE and log | scans | 477 mb
MP3 CBR 320kbps | RAR | 165 mb
Genre: rock, jazz rock

Full Circle is the debut album by California Transit Authority, the band founded by Chicago founding member, drummer Daniel Seraphine. The album features a number of originals plus covers of Chicago classics. The California Transit Authority consists of Seraphine (drums), Marc Bonilla (electric & acoustic guitars), Larry Braggs (lead vocals), Ed Roth (keyboards, Hammond B-3 organ), Mick Mahan (bass guitar) and Peter Fish (keyboards, synth brass, Hammond B-3 organ & accordian). The album features a number of special guests, including drummer Sheila E. and organist Keith Emerson, both of whom play on "I'm A Man".

California Transit Authority - Full Circle (2007) **[RE-UP]**

01. Something Different
02. Introduction
03. South California Purples
04. Make Me Smile
05. Several Thousand
06. Dreams
07. West Virginia Fantasies
08. Colour My World
09. Happy Cause I'm Going Home
10. Mississippi Delta City Blues
11. Antonio's Love Jungle
12. I'm A Man
13. 25 Or 6 To 4 (Live)

EAC extraction logfile from 23. October 2007, 10:18 for CD
California Transit Authority / Full Circle

Used drive : LITE-ON DVDRW SOHW-1633S Adapter: 0 ID: 0
Read mode : Secure with NO C2, accurate stream, disable cache
Read offset correction : 12
Overread into Lead-In and Lead-Out : No

Used output format : Internal WAV Routines
44.100 Hz; 16 Bit; Stereo

Other options :
Fill up missing offset samples with silence : Yes
Delete leading and trailing silent blocks : No
Installed external ASPI interface


Track 1
Filename D:\FLAC\California Transit Authority - Full Circle (2007) [FLAC]\01 - Something Different.wav

Pre-gap length 0:00:02.00

Peak level 100.0 %
Track quality 100.0 %
Test CRC 5347BE7B
Copy CRC 5347BE7B
Copy OK

Track 2
Filename D:\FLAC\California Transit Authority - Full Circle (2007) [FLAC]\02 - Introduction.wav

Peak level 100.0 %
Track quality 100.0 %
Test CRC CF350863
Copy CRC CF350863
Copy OK

Track 3
Filename D:\FLAC\California Transit Authority - Full Circle (2007) [FLAC]\03 - South California Purples.wav

Peak level 100.0 %
Track quality 100.0 %
Test CRC DB2AC49B
Copy CRC DB2AC49B
Copy OK

Track 4
Filename D:\FLAC\California Transit Authority - Full Circle (2007) [FLAC]\04 - Make Me Smile.wav

Peak level 100.0 %
Track quality 100.0 %
Test CRC 37F894BD
Copy CRC 37F894BD
Copy OK

Track 5
Filename D:\FLAC\California Transit Authority - Full Circle (2007) [FLAC]\05 - Several Thousand.wav

Pre-gap length 0:00:01.49

Peak level 100.0 %
Track quality 100.0 %
Test CRC 2C53B1A8
Copy CRC 2C53B1A8
Copy OK

Track 6
Filename D:\FLAC\California Transit Authority - Full Circle (2007) [FLAC]\06 - Dreams.wav

Peak level 100.0 %
Track quality 100.0 %
Test CRC B891F13C
Copy CRC B891F13C
Copy OK

Track 7
Filename D:\FLAC\California Transit Authority - Full Circle (2007) [FLAC]\07 - West Virginia Fantasies.wav

Peak level 100.0 %
Track quality 100.0 %
Test CRC 8E9A9671
Copy CRC 8E9A9671
Copy OK

Track 8
Filename D:\FLAC\California Transit Authority - Full Circle (2007) [FLAC]\08 - Colour My World.wav

Peak level 100.0 %
Track quality 100.0 %
Test CRC 7F3491E9
Copy CRC 7F3491E9
Copy OK

Track 9
Filename D:\FLAC\California Transit Authority - Full Circle (2007) [FLAC]\09 - Happy Cause I'm Going Home.wav

Peak level 100.0 %
Track quality 100.0 %
Test CRC 17964F53
Copy CRC 17964F53
Copy OK

Track 10
Filename D:\FLAC\California Transit Authority - Full Circle (2007) [FLAC]\10 - Mississippi Delta City Blues.wav

Peak level 100.0 %
Track quality 99.9 %
Test CRC 160BD2B7
Copy CRC 160BD2B7
Copy OK

Track 11
Filename D:\FLAC\California Transit Authority - Full Circle (2007) [FLAC]\11 - Antonio's Love Jungle.wav

Peak level 100.0 %
Track quality 100.0 %
Test CRC B8116BA1
Copy CRC B8116BA1
Copy OK

Track 12
Filename D:\FLAC\California Transit Authority - Full Circle (2007) [FLAC]\12 - I'm A Man.wav

Pre-gap length 0:00:00.48

Peak level 100.0 %
Track quality 100.0 %
Test CRC 9AFB6C77
Copy CRC 9AFB6C77
Copy OK

Track 13
Filename D:\FLAC\California Transit Authority - Full Circle (2007) [FLAC]\13 - 25 Or 6 To 4 (Live) (Bonus Track).wav

Peak level 100.0 %
Track quality 100.0 %
Test CRC 90D4AA71
Copy CRC 90D4AA71
Copy OK

No errors occured


End of status report


[url=https://icerbox.com/gJ1RRpdl/C4LlF0RNl4TR4N5lT4UTH0RlTY-FC_ZOO7FL4C.rar
]Icerbox (FLAC)
[url=https://icerbox.com/g1RXXzaO/C4LlF0RNl4TR4N5lT4UTH0RlTY-FC_ZOO7MPE.rar
]Icerbox (MP3)

California Transit Authority - Full Circle (2007) **[RE-UP]**