Subcategories

Chico Magnetic Band - s/t (1971) {2002 Lizard}

Posted By: TestTickles
Chico Magnetic Band - s/t (1971) {2002 Lizard}

Chico Magnetic Band - s/t (1971) {2002 Lizard}
EAC Rip | FLAC with CUE and log | scans | 208 mb
MP3 CBR 320kbps | RAR | 73 mb
Genre: psychedelic rock

Chico Magnetic Band is the first and only album by The Chico Magnetic Band, released in 1971. A French group full of weirdos, fans discovered it and fell in love with the perceived weirdness, gaining a cult following for decades. Most of the songs are performed in English, with the last song closing en français. This was reissued on compact disc in 2002 by Lizard.

Chico Magnetic Band - s/t (1971) {2002 Lizard}

1. Explosion
2. Pop Pull Hair
3. Lot Of Things
4. We All Come And Go
5. To Where I Belong
6. My Sorrow
7. Cross Town Traffic
8. Pop Orbite

Mahmoud Ayari "Chico"-vocals
Patrick Garel-drums
Alain Fabregue-bass
Bernard Lloret-guitar

Produced by Jean Pierre Rawson
Engineered by Pierre Guichon

EAC extraction logfile from 28. March 2007, 14:52 for CD
Chico Magnetic Band / s-t

Used drive : BENQ DVD DD DW1620 Adapter: 1 ID: 1
Read mode : Secure with NO C2, accurate stream, disable cache
Read offset correction : 618
Overread into Lead-In and Lead-Out : No

Used output format : C:\Program Files\Exact Audio Copy\flac.exe (User Defined Encoder)
128 kBit/s
Additional command line options : -V -8 -T "artist=%a" -T "title=%t" -T "album=%g" -T "date=%y" -T "tracknumber=%n" -T "genre=%m" %s

Other options :
Fill up missing offset samples with silence : Yes
Delete leading and trailing silent blocks : No
Installed external ASPI interface

Track 1

Filename C:\FLAC\Chico Magnetic Band - s-t (1971) [FLAC] {2002 Lizard}\01 - Explosion.wav

Pre-gap length 0:00:02.00
Peak level 98.0 %
Track quality 100.0 %
Test CRC 66CD2320
Copy CRC 66CD2320
Copy OK

Track 2

Filename C:\FLAC\Chico Magnetic Band - s-t (1971) [FLAC] {2002 Lizard}\02 - Pop Pull Hair.wav

Peak level 98.0 %
Track quality 100.0 %
Test CRC DAED05E5
Copy CRC DAED05E5
Copy OK

Track 3

Filename C:\FLAC\Chico Magnetic Band - s-t (1971) [FLAC] {2002 Lizard}\03 - Lot Of Things.wav

Pre-gap length 0:00:02.17
Peak level 98.0 %
Track quality 100.0 %
Test CRC D61CEDC3
Copy CRC D61CEDC3
Copy OK

Track 4

Filename C:\FLAC\Chico Magnetic Band - s-t (1971) [FLAC] {2002 Lizard}\04 - We All Come And Go.wav

Pre-gap length 0:00:01.22
Peak level 98.0 %
Track quality 99.9 %
Test CRC DFDC3D95
Copy CRC DFDC3D95
Copy OK

Track 5

Filename C:\FLAC\Chico Magnetic Band - s-t (1971) [FLAC] {2002 Lizard}\05 - To Where I Belong.wav

Peak level 98.0 %
Track quality 99.9 %
Test CRC 931392EF
Copy CRC 931392EF
Copy OK

Track 6

Filename C:\FLAC\Chico Magnetic Band - s-t (1971) [FLAC] {2002 Lizard}\06 - My Sorrow.wav

Pre-gap length 0:00:02.00

Peak level 98.0 %
Track quality 100.0 %
Test CRC 2C3DA193
Copy CRC 2C3DA193
Copy OK

Track 7

Filename C:\FLAC\Chico Magnetic Band - s-t (1971) [FLAC] {2002 Lizard}\07 - Cross Town Traffic.wav

Pre-gap length 0:00:02.10

Peak level 98.0 %
Track quality 100.0 %
Test CRC D44140AB
Copy CRC D44140AB
Copy OK

Track 8

Filename C:\FLAC\Chico Magnetic Band - s-t (1971) [FLAC] {2002 Lizard}\08 - Pop Orbite.wav

Pre-gap length 0:00:02.80
Peak level 98.0 %
Track quality 100.0 %
Test CRC 42BD50AF
Copy CRC 42BD50AF
Copy OK

No errors occured

End of status report


Chico Magnetic Band - s/t (1971) {2002 Lizard}


Thank you to the original uploader