Subcategories

clipping. - There Existed An Addiction To Blood (2019) {Sub Pop}

Posted By: TestTickles
clipping. - There Existed An Addiction To Blood (2019) {Sub Pop}

clipping. - There Existed An Addiction To Blood (2019) {Sub Pop}
EAC Rip | FLAC with CUE and log | scans | 421 mb
MP3 CBR 320 kbps | RAR | 152 mb
Genre: hip-hop, rap, experimental rap

There Existed An Addiction To Blood is the 2019 by experimental rap group clipping. This was released by experimental record label Subterranean Pop, or better known as Sub Pop.

01. Intro (1:04)
02. Nothing is Safe (4:57)
03. He Dead (4:22)
04. Haunting (Interlude) (0:57)
05. La Mala Ordina (5:46)
06. Club Down (4:31)
07. Prophecy (Interlude) (1:12)
08. Run for Your Life (4:52)
09. The Show (3:05)
10. Posession (Interlude) (2:11)
11. All in Your Head (4:30)
12. Blood of the Fang (4:40)
13. Story 7 (3:40)
14. Attunement (4:47)
15. Piano Burning (18:01)

clipping. - There Existed An Addiction To Blood (2019) {Sub Pop}


Exact Audio Copy V1.3 from 2. September 2016

EAC extraction logfile from 2. November 2019, 12:44

clipping. / There Existed An Addiction To Blood

Used drive : HL-DT-STDVDRAM GP65NB60 Adapter: 1 ID: 0

Read mode : Secure
Utilize accurate stream : Yes
Defeat audio cache : Yes
Make use of C2 pointers : No

Read offset correction : 6
Overread into Lead-In and Lead-Out : No
Fill up missing offset samples with silence : Yes
Delete leading and trailing silent blocks : No
Null samples used in CRC calculations : Yes
Used interface : Native Win32 interface for Win NT & 2000
Gap handling : Appended to previous track

Used output format : User Defined Encoder
Selected bitrate : 1024 kBit/s
Quality : High
Add ID3 tag : No
Command line compressor : C:\Program Files (x86)\Exact Audio Copy\FLAC\FLAC.EXE
Additional command line options : -8 -V -T "ARTIST=%artist%" -T "TITLE=%title%" -T "ALBUM=%albumtitle%" -T "DATE=%year%" -T "TRACKNUMBER=%tracknr%" -T "GENRE=%genre%" -T "PERFORMER=%albuminterpret%" -T "COMPOSER=%composer%" %haslyrics%–tag-from-file=LYRICS="%lyricsfile%"%haslyrics% -T "ALBUMARTIST=%albumartist%" -T "DISCNUMBER=%cdnumber%" -T "TOTALDISCS=%totalcds%" -T "TOTALTRACKS=%numtracks%" -T "COMMENT=%comment%" %source% -o %dest%


TOC of the extracted CD

Track | Start | Length | Start sector | End sector
––––––––––––––––––––––––––––-
1 | 0:00.00 | 1:04.32 | 0 | 4831
2 | 1:04.32 | 4:57.18 | 4832 | 27124
3 | 6:01.50 | 4:22.09 | 27125 | 46783
4 | 10:23.59 | 0:57.28 | 46784 | 51086
5 | 11:21.12 | 5:46.11 | 51087 | 77047
6 | 17:07.23 | 4:30.66 | 77048 | 97363
7 | 21:38.14 | 1:11.60 | 97364 | 102748
8 | 22:49.74 | 4:52.34 | 102749 | 124682
9 | 27:42.33 | 3:04.64 | 124683 | 138546
10 | 30:47.22 | 2:10.45 | 138547 | 148341
11 | 32:57.67 | 4:29.66 | 148342 | 168582
12 | 37:27.58 | 4:39.65 | 168583 | 189572
13 | 42:07.48 | 3:40.34 | 189573 | 206106
14 | 45:48.07 | 4:46.68 | 206107 | 227624
15 | 50:35.00 | 18:00.63 | 227625 | 308687


Track 1

Filename C:\cuntfist\FLAC\clipping. - There Existed An Addiction To Blood (2019) [FLAC] {Sub Pop}\01 - Intro.wav

Pre-gap length 0:00:02.00

Peak level 98.1 %
Extraction speed 1.2 X
Track quality 99.8 %
Test CRC 783D5DE5
Copy CRC 783D5DE5
Track not present in AccurateRip database
Copy OK

Track 2

Filename C:\cuntfist\FLAC\clipping. - There Existed An Addiction To Blood (2019) [FLAC] {Sub Pop}\02 - Nothing Is Safe.wav

Peak level 100.0 %
Extraction speed 2.8 X
Track quality 100.0 %
Test CRC 45CD35CC
Copy CRC 45CD35CC
Track not present in AccurateRip database
Copy OK

Track 3

Filename C:\cuntfist\FLAC\clipping. - There Existed An Addiction To Blood (2019) [FLAC] {Sub Pop}\03 - He Dead.wav

Peak level 100.0 %
Extraction speed 3.0 X
Track quality 100.0 %
Test CRC C8D14E4D
Copy CRC C8D14E4D
Track not present in AccurateRip database
Copy OK

Track 4

Filename C:\cuntfist\FLAC\clipping. - There Existed An Addiction To Blood (2019) [FLAC] {Sub Pop}\04 - Haunting (Interlude).wav

Peak level 89.1 %
Extraction speed 2.2 X
Track quality 100.0 %
Test CRC 49DAF1A4
Copy CRC 49DAF1A4
Track not present in AccurateRip database
Copy OK

Track 5

Filename C:\cuntfist\FLAC\clipping. - There Existed An Addiction To Blood (2019) [FLAC] {Sub Pop}\05 - La Mala Ordina.wav

Peak level 100.0 %
Extraction speed 3.4 X
Track quality 100.0 %
Test CRC 690C0E63
Copy CRC 690C0E63
Track not present in AccurateRip database
Copy OK

Track 6

Filename C:\cuntfist\FLAC\clipping. - There Existed An Addiction To Blood (2019) [FLAC] {Sub Pop}\06 - Club Down.wav

Peak level 100.0 %
Extraction speed 3.0 X
Track quality 99.9 %
Test CRC CAA844C9
Copy CRC CAA844C9
Track not present in AccurateRip database
Copy OK

Track 7

Filename C:\cuntfist\FLAC\clipping. - There Existed An Addiction To Blood (2019) [FLAC] {Sub Pop}\07 - Prophecy (Interlude).wav

Peak level 76.3 %
Extraction speed 2.8 X
Track quality 100.0 %
Test CRC 726F5C58
Copy CRC 726F5C58
Track not present in AccurateRip database
Copy OK

Track 8

Filename C:\cuntfist\FLAC\clipping. - There Existed An Addiction To Blood (2019) [FLAC] {Sub Pop}\08 - Run For Your Life.wav

Peak level 100.0 %
Extraction speed 3.9 X
Track quality 100.0 %
Test CRC 0AD52CDE
Copy CRC 0AD52CDE
Track not present in AccurateRip database
Copy OK

Track 9

Filename C:\cuntfist\FLAC\clipping. - There Existed An Addiction To Blood (2019) [FLAC] {Sub Pop}\09 - The Show.wav

Peak level 100.0 %
Extraction speed 3.8 X
Track quality 100.0 %
Test CRC 79EEFA94
Copy CRC 79EEFA94
Track not present in AccurateRip database
Copy OK

Track 10

Filename C:\cuntfist\FLAC\clipping. - There Existed An Addiction To Blood (2019) [FLAC] {Sub Pop}\10 - Posession (Interlude).wav

Peak level 69.7 %
Extraction speed 3.7 X
Track quality 100.0 %
Test CRC 818048F3
Copy CRC 818048F3
Track not present in AccurateRip database
Copy OK

Track 11

Filename C:\cuntfist\FLAC\clipping. - There Existed An Addiction To Blood (2019) [FLAC] {Sub Pop}\11 - All In Your Head.wav

Peak level 100.0 %
Extraction speed 3.7 X
Track quality 99.9 %
Test CRC 9B13A20B
Copy CRC 9B13A20B
Track not present in AccurateRip database
Copy OK

Track 12

Filename C:\cuntfist\FLAC\clipping. - There Existed An Addiction To Blood (2019) [FLAC] {Sub Pop}\12 - Blood Of The Fang.wav

Peak level 100.0 %
Extraction speed 3.8 X
Track quality 99.9 %
Test CRC 803029C7
Copy CRC 803029C7
Track not present in AccurateRip database
Copy OK

Track 13

Filename C:\cuntfist\FLAC\clipping. - There Existed An Addiction To Blood (2019) [FLAC] {Sub Pop}\13 - Story 7.wav

Peak level 100.0 %
Extraction speed 3.7 X
Track quality 99.9 %
Test CRC 33BAA224
Copy CRC 33BAA224
Track not present in AccurateRip database
Copy OK

Track 14

Filename C:\cuntfist\FLAC\clipping. - There Existed An Addiction To Blood (2019) [FLAC] {Sub Pop}\14 - Attunement.wav

Peak level 100.0 %
Extraction speed 4.7 X
Track quality 100.0 %
Test CRC 6261EE1E
Copy CRC 6261EE1E
Track not present in AccurateRip database
Copy OK

Track 15

Filename C:\cuntfist\FLAC\clipping. - There Existed An Addiction To Blood (2019) [FLAC] {Sub Pop}\15 - Piano Burning.wav

Peak level 100.0 %
Extraction speed 5.5 X
Track quality 100.0 %
Test CRC EDFFDABC
Copy CRC EDFFDABC
Track not present in AccurateRip database
Copy OK


None of the tracks are present in the AccurateRip database

No errors occurred

End of status report

–– CUETools DB Plugin V2.1.6

[CTDB TOCID: N9yUS067tVw5CWBNBmf3NxR9qgE-] disk not present in database
Submit result: N9yUS067tVw5CWBNBmf3NxR9qgE- has been uploaded


==== Log checksum 8DCA3717E0886E444A155DF7EE274D937C580D4648F6C39A3F346E1CE2C7008F ====


clipping. - There Existed An Addiction To Blood (2019) {Sub Pop}


Thank you to the original uploader.