Tags
Language
Tags
April 2024
Su Mo Tu We Th Fr Sa
31 1 2 3 4 5 6
7 8 9 10 11 12 13
14 15 16 17 18 19 20
21 22 23 24 25 26 27
28 29 30 1 2 3 4

Charlie Mole - The Importance of Being Earnest (Original Motion Picture Score) [2002]

Posted By: Aregak
Charlie Mole - The Importance of Being Earnest (Original Motion Picture Score) [2002]

Charlie Mole - The Importance of Being Earnest (Original Motion Picture Score) [2002]
EAC Rip | FLAC, TRACKS+CUE, LOG, Covers) | 00:39:40 | 226.72 MB
Score | Milan / 73138-35990-2 /

The album was composed by composer Charlie Mole (Mr. Selfridge, Mr. Selfridge, Papach Army), and its release took place on October 7, 2014. The soundtrack got 19 songs with a total duration of about 50 minutes. The selection is a compilation of original music. Album was released by BFD.
[size=3]2002 | US | Milan | 73138-35990-2[/size]

Track list:
01. Importance of Being Earnest Front Titles [0:01:51.50]
02. Jack Leaves for the City [0:01:46.66]
03. Algy Goes Bunburying [0:01:23.15]
04. Arrival at Lady Bracknell's [0:01:06.28]
05. The Interview [0:02:39.58]
06. Jack and Gwendolen [0:01:57.29]
07. Punting on the River [0:01:47.57]
08. The Vital Importance of Being Earnest [0:01:29.59]
09. Cecily's Fantasy [0:01:50.70]
10. Teatime [0:02:48.04]
11. Lady Bracknell [0:00:49.44]
12. The Debt Collectors [0:01:22.46]
13. The Serenade (Lady Come Down) [0:02:08.61] performed by Rupert Everett & Colin Firth
14. Pefectly Heartless [0:06:00.24]
15. Found in a Handbag [0:01:45.69]
16. "Where's That Baby?" [0:02:36.47]
17. Dr. Chasuble Proposes to Miss Prism [0:00:58.13]
18. "Ernest After All" [0:02:11.57]
19. Lady Come Down [0:03:03.06] performed by Rupert Everett & Colin Firth

Orchestrated by Geoff Alexander & Simon Chamberlain

Conducted by Geoff Alexander

Exact Audio Copy V1.3 from 2. September 2016

EAC extraction logfile from 2. May 2019, 20:19

Charlie Mole / The Importance of Being Earnest

Used drive : PLEXTOR CD-R PX-230A Adapter: 1 ID: 3

Read mode : Secure
Utilize accurate stream : Yes
Defeat audio cache : Yes
Make use of C2 pointers : No

Read offset correction : 738
Overread into Lead-In and Lead-Out : No
Fill up missing offset samples with silence : Yes
Delete leading and trailing silent blocks : No
Null samples used in CRC calculations : Yes
Used interface : Native Win32 interface for Win NT & 2000
Gap handling : Appended to previous track

Used output format : User Defined Encoder
Selected bitrate : 1024 kBit/s
Quality : High
Add ID3 tag : No
Command line compressor : C:\Program Files\Exact Audio Copy\Flac\flac.exe
Additional command line options : -6 -V -T "ARTIST=%artist%" -T "TITLE=%title%" -T "ALBUM=%albumtitle%" -T "DATE=%year%" -T "TRACKNUMBER=%tracknr%" -T "GENRE=%genre%" -T "COMMENT=%comment%" -T "ALBUMARTIST=%albuminterpret%" -T "COMPOSER=%composer%" -T "DISCNUMBER=%cdnumber%" -T "TOTALDISCS=%totalcds%" -T "TOTALTRACKS=%numtracks%" %source% -o %dest%


TOC of the extracted CD

Track | Start | Length | Start sector | End sector
––––––––––––––––––––––––––––-
1 | 0:00.00 | 1:51.50 | 0 | 8374
2 | 1:51.50 | 1:46.66 | 8375 | 16390
3 | 3:38.41 | 1:23.15 | 16391 | 22630
4 | 5:01.56 | 1:06.28 | 22631 | 27608
5 | 6:08.09 | 2:39.58 | 27609 | 39591
6 | 8:47.67 | 1:57.29 | 39592 | 48395
7 | 10:45.21 | 1:47.57 | 48396 | 56477
8 | 12:33.03 | 1:29.59 | 56478 | 63211
9 | 14:02.62 | 1:50.70 | 63212 | 71531
10 | 15:53.57 | 2:48.04 | 71532 | 84135
11 | 18:41.61 | 0:49.44 | 84136 | 87854
12 | 19:31.30 | 1:22.46 | 87855 | 94050
13 | 20:54.01 | 2:08.61 | 94051 | 103711
14 | 23:02.62 | 6:00.24 | 103712 | 130735
15 | 29:03.11 | 1:45.69 | 130736 | 138679
16 | 30:49.05 | 2:36.47 | 138680 | 150426
17 | 33:25.52 | 0:58.13 | 150427 | 154789
18 | 34:23.65 | 2:11.57 | 154790 | 164671
19 | 36:35.47 | 3:03.06 | 164672 | 178402


Track 1

Filename C:\Ripped by Filex\01 - Charlie Mole - Importance of Being Earnest Front Titles.wav

Pre-gap length 0:00:02.00

Peak level 99.8 %
Extraction speed 4.3 X
Track quality 100.0 %
Test CRC D85AC5B4
Copy CRC D85AC5B4
Accurately ripped (confidence 2) [8D3DF046] (AR v2)
Copy OK

Track 2

Filename C:\Ripped by Filex\02 - Charlie Mole - Jack Leaves for the City.wav

Pre-gap length 0:00:01.73

Peak level 97.3 %
Extraction speed 3.1 X
Track quality 99.9 %
Test CRC F53C8674
Copy CRC F53C8674
Accurately ripped (confidence 2) [69B59E31] (AR v2)
Copy OK

Track 3

Filename C:\Ripped by Filex\03 - Charlie Mole - Algy Goes Bunburying.wav

Pre-gap length 0:00:03.39

Peak level 88.8 %
Extraction speed 4.3 X
Track quality 100.0 %
Test CRC E999AA9F
Copy CRC E999AA9F
Accurately ripped (confidence 2) [A51FBE59] (AR v2)
Copy OK

Track 4

Filename C:\Ripped by Filex\04 - Charlie Mole - Arrival at Lady Bracknell's.wav

Pre-gap length 0:00:03.09

Peak level 76.5 %
Extraction speed 2.9 X
Track quality 99.8 %
Test CRC F24B116E
Copy CRC F24B116E
Accurately ripped (confidence 2) [347F5ABB] (AR v2)
Copy OK

Track 5

Filename C:\Ripped by Filex\05 - Charlie Mole - The Interview.wav

Pre-gap length 0:00:00.01

Peak level 82.0 %
Extraction speed 5.0 X
Track quality 100.0 %
Test CRC 3214D921
Copy CRC 3214D921
Accurately ripped (confidence 2) [73CC4E43] (AR v2)
Copy OK

Track 6

Filename C:\Ripped by Filex\06 - Charlie Mole - Jack and Gwendolen.wav

Pre-gap length 0:00:03.73

Peak level 55.1 %
Extraction speed 4.7 X
Track quality 100.0 %
Test CRC 234D0760
Copy CRC 234D0760
Accurately ripped (confidence 2) [144BD398] (AR v2)
Copy OK

Track 7

Filename C:\Ripped by Filex\07 - Charlie Mole - Punting on the River.wav

Pre-gap length 0:00:04.26

Peak level 81.6 %
Extraction speed 3.9 X
Track quality 100.0 %
Test CRC B7121499
Copy CRC B7121499
Accurately ripped (confidence 2) [B0AC84A3] (AR v2)
Copy OK

Track 8

Filename C:\Ripped by Filex\08 - Charlie Mole - The Vital Importance of Being Earnest.wav

Pre-gap length 0:00:03.58

Peak level 92.8 %
Extraction speed 4.3 X
Track quality 100.0 %
Test CRC 0C86CFAC
Copy CRC 0C86CFAC
Accurately ripped (confidence 2) [665CCDC6] (AR v2)
Copy OK

Track 9

Filename C:\Ripped by Filex\09 - Charlie Mole - Cecily's Fantasy.wav

Pre-gap length 0:00:03.31

Peak level 94.5 %
Extraction speed 4.2 X
Track quality 100.0 %
Test CRC EC7E9AA2
Copy CRC EC7E9AA2
Accurately ripped (confidence 2) [B66C9BC0] (AR v2)
Copy OK

Track 10

Filename C:\Ripped by Filex\10 - Charlie Mole - Teatime.wav

Pre-gap length 0:00:01.29

Peak level 99.8 %
Extraction speed 4.7 X
Track quality 100.0 %
Test CRC ABD72C0C
Copy CRC ABD72C0C
Accurately ripped (confidence 2) [A0E519DE] (AR v2)
Copy OK

Track 11

Filename C:\Ripped by Filex\11 - Charlie Mole - Lady Bracknell.wav

Pre-gap length 0:00:00.01

Peak level 70.8 %
Extraction speed 3.5 X
Track quality 100.0 %
Test CRC FD338EFF
Copy CRC FD338EFF
Accurately ripped (confidence 2) [9997A9EF] (AR v2)
Copy OK

Track 12

Filename C:\Ripped by Filex\12 - Charlie Mole - The Debt Collectors.wav

Pre-gap length 0:00:00.72

Peak level 81.5 %
Extraction speed 4.2 X
Track quality 100.0 %
Test CRC 13581322
Copy CRC 13581322
Accurately ripped (confidence 2) [344FE482] (AR v2)
Copy OK

Track 13

Filename C:\Ripped by Filex\13 - Rupert Everett & Colin Firth - The Serenade (Lady Come Down).wav

Pre-gap length 0:00:02.61

Peak level 89.9 %
Extraction speed 3.9 X
Track quality 99.9 %
Test CRC AC61FC36
Copy CRC AC61FC36
Accurately ripped (confidence 2) [183599F4] (AR v2)
Copy OK

Track 14

Filename C:\Ripped by Filex\14 - Charlie Mole - Pefectly Heartless.wav

Pre-gap length 0:00:03.24

Peak level 99.8 %
Extraction speed 4.1 X
Track quality 100.0 %
Test CRC 84C5EC2A
Copy CRC 84C5EC2A
Accurately ripped (confidence 2) [1208A661] (AR v2)
Copy OK

Track 15

Filename C:\Ripped by Filex\15 - Charlie Mole - Found in a Handbag.wav

Pre-gap length 0:00:02.18

Peak level 99.8 %
Extraction speed 3.6 X
Track quality 99.8 %
Test CRC BF0F0634
Copy CRC BF0F0634
Accurately ripped (confidence 2) [C1502816] (AR v2)
Copy OK

Track 16

Filename C:\Ripped by Filex\16 - Charlie Mole - ''Where's That Baby''.wav

Pre-gap length 0:00:00.53

Peak level 82.0 %
Extraction speed 4.9 X
Track quality 100.0 %
Test CRC 26AD4AF5
Copy CRC 26AD4AF5
Accurately ripped (confidence 2) [8BECA465] (AR v2)
Copy OK

Track 17

Filename C:\Ripped by Filex\17 - Charlie Mole - Dr. Chasuble Proposes to Miss Prism.wav

Pre-gap length 0:00:02.31

Peak level 57.9 %
Extraction speed 3.7 X
Track quality 100.0 %
Test CRC 5BA1CCB6
Copy CRC 5BA1CCB6
Accurately ripped (confidence 2) [49E6DE16] (AR v2)
Copy OK

Track 18

Filename C:\Ripped by Filex\18 - Charlie Mole - ''Ernest After All''.wav

Pre-gap length 0:00:02.63

Peak level 99.8 %
Extraction speed 4.8 X
Track quality 100.0 %
Test CRC 0D7483C9
Copy CRC 0D7483C9
Accurately ripped (confidence 2) [D2B9F683] (AR v2)
Copy OK

Track 19

Filename C:\Ripped by Filex\19 - Rupert Everett & Colin Firth - Lady Come Down.wav

Pre-gap length 0:00:02.69

Peak level 99.8 %
Extraction speed 4.9 X
Track quality 100.0 %
Test CRC CF9FC26F
Copy CRC CF9FC26F
Accurately ripped (confidence 2) [A534AC8F] (AR v2)
Copy OK


All tracks accurately ripped

No errors occurred

End of status report

–– CUETools DB Plugin V2.1.6

[CTDB TOCID: d8APEUpxkHHiStDjWA6TzVfIaiI-] found
Submit result: d8APEUpxkHHiStDjWA6TzVfIaiI- has been confirmed
Track | CTDB Status
1 | (10/10) Accurately ripped
2 | (10/10) Accurately ripped
3 | (10/10) Accurately ripped
4 | (10/10) Accurately ripped
5 | (10/10) Accurately ripped
6 | (10/10) Accurately ripped
7 | (10/10) Accurately ripped
8 | (10/10) Accurately ripped
9 | (10/10) Accurately ripped
10 | (10/10) Accurately ripped
11 | (10/10) Accurately ripped
12 | (10/10) Accurately ripped
13 | (10/10) Accurately ripped
14 | (10/10) Accurately ripped
15 | (10/10) Accurately ripped
16 | (10/10) Accurately ripped
17 | (10/10) Accurately ripped
18 | (10/10) Accurately ripped
19 | (10/10) Accurately ripped


==== Log checksum 41D1A2E24DCD42F0662342393FDD0E37249932310DF4F0C8D2F6451C2093B266 ====