Tags
Language
Tags

David Crosby, Jeff Pevar & James Raymond - Live At Cuesta College (1998) {2CD Set, CRP}

Posted By: ruskaval
David Crosby, Jeff Pevar & James Raymond - Live At Cuesta College (1998) {2CD Set, CRP}

David Crosby, Jeff Pevar & James Raymond - Live At Cuesta College (1998) {2CD Set, CRP}
EAC rip (secure mode) | FLAC (tracks)+CUE+LOG -> 588 Mb | MP3 @320 -> 285 Mb
Full Artwork @ 600 dpi (jpg) -> 54 Mb | 5% repair rar
© 1998 CPR | [none] - Self-released
Rock / Classic Rock / Folk Rock / Soft Rock

Live at Cuesta College is the debut album by the band CPR. It is a live document of their 1997 tour issued in limited release only via the CPR website. Recorded Live at Cuesta College in San Luis Obispo on January 18, 1997. This show, the sixth of the twelve show inaugural CPR tour entitled 'The Beginning' is recorded in it's entirety on two CD's.

The trio CPR includes legendary rock figure David Crosby, his touring guitarist Jeff Pevar, and his natural son, James Raymond on keyboards. Raymond, who grew up with adoptive parents and never knew the name of his real father until 1992, nevertheless studied music at California State University, San Bernardino and pursued a career in music. In 1994, Raymond finally arranged a meeting with Crosby; when the two gelled after talking for just a few minutes, they began writing music together as well. Crosby decided to hire his son as a keyboard player for a 1996 tour, playing Byrds favorites like "Eight Miles High" along with a new Crosby-Raymond composition, "Morrison." Crosby, Pevar and Raymond recorded CPR for a 1998 release on Samson Records; Live at Wiltern followed a year later; Just Like Gravity appeared in June 2001.
David Crosby, Jeff Pevar & James Raymond - Live At Cuesta College (1998) {2CD Set, CRP}


Personnel:
David Crosby (vocals, guitar)
Jeff Pevar (vocals, electric, acoustic and lap steel guitars)
James Raymond (vocals, piano, keyboards)

Track Listing

CD1

01. In My Dreams (06:51)
02. Tracks In The Dust (05:48)
03. Homewards Through The Haze (06:21)
04. Rusty & Blue (09:50)
05. Thousand Roads (05:33)
06. For Free (07:28)
07. Morrison (06:54)
08. Somehow She Knew (09:46)
09. 'Til It Shines On You (04:56)

David Crosby, Jeff Pevar & James Raymond - Live At Cuesta College (1998) {2CD Set, CRP}


CD2
01. Time Is The Final Currency (08:01)
02. Where Will I Be/Page 43 (06:06)
03. Delta (05:53)
04. Déjà Vu (12:13)
05. One For Every Moment (05:53)
06. Guinnevere (07:13)
07. Wooden Ships (10:12)

David Crosby, Jeff Pevar & James Raymond - Live At Cuesta College (1998) {2CD Set, CRP}


Exact Audio Copy V1.0 beta 1 from 15. November 2010

EAC extraction logfile from 7. December 2010, 3:16

CPR / Live At Cuesta College, Disc 1

Used drive : ATAPI iHAS424 Y Adapter: 0 ID: 3

Read mode : Secure
Utilize accurate stream : Yes
Defeat audio cache : Yes
Make use of C2 pointers : No

Read offset correction : 48
Overread into Lead-In and Lead-Out : No
Fill up missing offset samples with silence : Yes
Delete leading and trailing silent blocks : No
Null samples used in CRC calculations : Yes
Used interface : Native Win32 interface for Win NT & 2000
Gap handling : Appended to previous track

Used output format : User Defined Encoder
Selected bitrate : 768 kBit/s
Quality : High
Add ID3 tag : No
Command line compressor : C:\Program Files\Exact Audio Copy\Flac\flac.exe
Additional command line options : -8 -V -T "ARTIST=%a" -T "TITLE=%t" -T "ALBUM=%g" -T "DATE=%y" -T "TRACKNUMBER=%n" -T "TOTALTRACKS=%x" -T "GENRE=%m" -T "ALBUMARTIST=%v" -T "ALBUM ARTIST=%v" -T "COMMENT=EAC Secure Mode, Test & Copy, AccurateRip, FLAC -8" %s


TOC of the extracted CD

Track | Start | Length | Start sector | End sector
––––––––––––––––––––––––––––-
1 | 0:00.00 | 6:51.08 | 0 | 30832
2 | 6:51.08 | 5:48.30 | 30833 | 56962
3 | 12:39.38 | 6:21.49 | 56963 | 85586
4 | 19:01.12 | 9:50.53 | 85587 | 129889
5 | 28:51.65 | 5:33.01 | 129890 | 154865
6 | 34:24.66 | 7:28.72 | 154866 | 188537
7 | 41:53.63 | 6:54.15 | 188538 | 219602
8 | 48:48.03 | 9:46.46 | 219603 | 263598
9 | 58:34.49 | 4:56.33 | 263599 | 285831


Track 1

Filename G:\Uploads\CPR - Live At Cuesta College, Disc 1\01 - In My Dreams.wav

Pre-gap length 0:00:02.00

Peak level 100.0 %
Extraction speed 2.4 X
Track quality 99.9 %
Test CRC E975511C
Copy CRC E975511C
Accurately ripped (confidence 1) [23AD3476]
Copy OK

Track 2

Filename G:\Uploads\CPR - Live At Cuesta College, Disc 1\02 - Tracks In The Dust.wav

Peak level 64.5 %
Extraction speed 3.0 X
Track quality 100.0 %
Test CRC A2EDF9A5
Copy CRC A2EDF9A5
Accurately ripped (confidence 1) [83B61775]
Copy OK

Track 3

Filename G:\Uploads\CPR - Live At Cuesta College, Disc 1\03 - Homeward Through The Haze.wav

Peak level 88.4 %
Extraction speed 3.3 X
Track quality 100.0 %
Test CRC AB634D42
Copy CRC AB634D42
Accurately ripped (confidence 1) [F2E33110]
Copy OK

Track 4

Filename G:\Uploads\CPR - Live At Cuesta College, Disc 1\04 - Rusty & Blue.wav

Peak level 89.8 %
Extraction speed 3.8 X
Track quality 100.0 %
Test CRC 741B9499
Copy CRC 741B9499
Accurately ripped (confidence 1) [E7A3376F]
Copy OK

Track 5

Filename G:\Uploads\CPR - Live At Cuesta College, Disc 1\05 - Thousand Roads.wav

Peak level 93.9 %
Extraction speed 3.9 X
Track quality 100.0 %
Test CRC CE417772
Copy CRC CE417772
Accurately ripped (confidence 1) [96959477]
Copy OK

Track 6

Filename G:\Uploads\CPR - Live At Cuesta College, Disc 1\06 - For Free.wav

Peak level 59.8 %
Extraction speed 4.0 X
Track quality 99.9 %
Test CRC DADF0225
Copy CRC DADF0225
Accurately ripped (confidence 1) [6936AF07]
Copy OK

Track 7

Filename G:\Uploads\CPR - Live At Cuesta College, Disc 1\07 - Morrison.wav

Peak level 100.0 %
Extraction speed 4.6 X
Track quality 100.0 %
Test CRC C000116C
Copy CRC C000116C
Accurately ripped (confidence 1) [8B1BA4E4]
Copy OK

Track 8

Filename G:\Uploads\CPR - Live At Cuesta College, Disc 1\08 - Somehow She Knew.wav

Peak level 54.3 %
Extraction speed 5.0 X
Track quality 100.0 %
Test CRC 3F14C413
Copy CRC 3F14C413
Accurately ripped (confidence 1) [F19C8701]
Copy OK

Track 9

Filename G:\Uploads\CPR - Live At Cuesta College, Disc 1\09 - 'Til It Shines On You.wav

Peak level 100.0 %
Extraction speed 4.9 X
Track quality 100.0 %
Test CRC 642A8203
Copy CRC 642A8203
Accurately ripped (confidence 1) [2D40735E]
Copy OK


All tracks accurately ripped

No errors occurred

End of status report

==== Log checksum 024393C1DFF49A0BBA023AF450B4C7CB2F89A57C32AE1C9E577A12083B4F0989 ====
Exact Audio Copy V1.0 beta 1 from 15. November 2010

EAC extraction logfile from 7. December 2010, 6:43

CPR / Live At Cuesta College, Disc 2

Used drive : ATAPI iHAS424 Y Adapter: 0 ID: 3

Read mode : Secure
Utilize accurate stream : Yes
Defeat audio cache : Yes
Make use of C2 pointers : No

Read offset correction : 48
Overread into Lead-In and Lead-Out : No
Fill up missing offset samples with silence : Yes
Delete leading and trailing silent blocks : No
Null samples used in CRC calculations : Yes
Used interface : Native Win32 interface for Win NT & 2000
Gap handling : Appended to previous track

Used output format : User Defined Encoder
Selected bitrate : 768 kBit/s
Quality : High
Add ID3 tag : No
Command line compressor : C:\Program Files\Exact Audio Copy\Flac\flac.exe
Additional command line options : -8 -V -T "ARTIST=%a" -T "TITLE=%t" -T "ALBUM=%g" -T "DATE=%y" -T "TRACKNUMBER=%n" -T "TOTALTRACKS=%x" -T "GENRE=%m" -T "ALBUMARTIST=%v" -T "ALBUM ARTIST=%v" -T "COMMENT=EAC Secure Mode, Test & Copy, AccurateRip, FLAC -8" %s


TOC of the extracted CD

Track | Start | Length | Start sector | End sector
––––––––––––––––––––––––––––-
1 | 0:00.00 | 8:01.00 | 0 | 36074
2 | 8:01.00 | 6:06.50 | 36075 | 63574
3 | 14:07.50 | 5:53.14 | 63575 | 90063
4 | 20:00.64 | 12:13.45 | 90064 | 145083
5 | 32:14.34 | 5:53.56 | 145084 | 171614
6 | 38:08.15 | 7:13.72 | 171615 | 204161
7 | 45:22.12 | 10:12.45 | 204162 | 250106


Track 1

Filename G:\Uploads\CPR - Live At Cuesta College, Disc 2\01 - Time Is The Final Currency.wav

Pre-gap length 0:00:02.00

Peak level 61.4 %
Extraction speed 2.0 X
Track quality 99.9 %
Test CRC 91C1033E
Copy CRC 91C1033E
Track not present in AccurateRip database
Copy OK

Track 2

Filename G:\Uploads\CPR - Live At Cuesta College, Disc 2\02 - Where Will I Be, Page 43.wav

Peak level 89.8 %
Extraction speed 3.0 X
Track quality 100.0 %
Test CRC BFD9BD29
Copy CRC BFD9BD29
Track not present in AccurateRip database
Copy OK

Track 3

Filename G:\Uploads\CPR - Live At Cuesta College, Disc 2\03 - Delta.wav

Peak level 73.4 %
Extraction speed 3.2 X
Track quality 100.0 %
Test CRC FEF253AF
Copy CRC FEF253AF
Track not present in AccurateRip database
Copy OK

Track 4

Filename G:\Uploads\CPR - Live At Cuesta College, Disc 2\04 - Deja Vu.wav

Peak level 100.0 %
Extraction speed 3.9 X
Track quality 100.0 %
Test CRC 51E7A431
Copy CRC 51E7A431
Track not present in AccurateRip database
Copy OK

Track 5

Filename G:\Uploads\CPR - Live At Cuesta College, Disc 2\05 - One For Every Moment.wav

Peak level 100.0 %
Extraction speed 4.0 X
Track quality 100.0 %
Test CRC 30281282
Copy CRC 30281282
Track not present in AccurateRip database
Copy OK

Track 6

Filename G:\Uploads\CPR - Live At Cuesta College, Disc 2\06 - Guinnevere.wav

Peak level 43.7 %
Extraction speed 4.4 X
Track quality 100.0 %
Test CRC 0CC2BBE9
Copy CRC 0CC2BBE9
Track not present in AccurateRip database
Copy OK

Track 7

Filename G:\Uploads\CPR - Live At Cuesta College, Disc 2\07 - Wooden Ships.wav

Peak level 100.0 %
Extraction speed 4.8 X
Track quality 100.0 %
Test CRC 122A6A59
Copy CRC 122A6A59
Track not present in AccurateRip database
Copy OK


None of the tracks are present in the AccurateRip database

No errors occurred

End of status report

==== Log checksum 1BB83C10B21469B6E92C303DC2CD830A0C442DEF3CC6740264D4D03A1113C7E3 ====


David Crosby, Jeff Pevar & James Raymond - Live At Cuesta College (1998) {2CD Set, CRP}


see also:
David Crosby, Jeff Pevar &... Set, Samson Records ‎GC 0148}



===