Tags
Language
Tags

Cal Tjader - Soulful Vibes [Recorded 1963-1967] (2008)

Posted By: gribovar
Cal Tjader - Soulful Vibes [Recorded 1963-1967] (2008)

Cal Tjader - Soulful Vibes [Recorded 1963-1967] (2008)
EAC Rip | FLAC (image+.cue+log) - 446 MB | MP3 CBR 320 kbps (LAME 3.93) - 180 MB | Covers (4 MB) included
Genre: Jazz, Latin Jazz | RAR 3% Rec. | Label: Universal Music (06007 5312039)

The Jazz Club series is an attractive addition to the Verve catalogue. With it's modern design and popular choice of repertoire, the Jazz Club is not only opened for Jazz fans, but for everyone that loves good music.
Cal Tjader was undoubtedly the most famous non-Latino leader of Latin jazz bands, an extraordinary distinction. From the 1950s until his death, he was practically the point man between the worlds of Latin jazz and mainstream bop; his light, rhythmic, joyous vibraphone manner could comfortably embrace both styles. His numerous recordings for Fantasy and Verve and long-standing presence in the San Francisco Bay Area eventually had a profound influence upon Carlos Santana, and thus Latin rock. He also played drums and bongos, the latter most notably on the George Shearing Quintet's puckishly titled "Rap Your Troubles in Drums," and would occasionally sit in on piano as well.
Tracklist:
01. Alonzo
02. Hip Walk
03. China Nights (Shina No Yoru)
04. Fuji
05. Sunset Boulevard
06. Leyte
07. Maramoor
08. Soul Motion
09. Daddy Wong Legs
10. Soul Burst (Guajera)
11. It Didn't End (Nao Se Acabou)
12. Curacao
13. Modesty (Theme from Modesty Blaise)
14. El Sonido Nuevo
15. Samba Do Suenho
16. Souled Out
17. The Prophet
18. Cal's Bluedo

Total time: 01:14:45

Exact Audio Copy V1.0 beta 3 from 29. August 2011

Отчёт EAC об извлечении, выполненном 1. сентября 2013, 13:03

Cal Tjader / Jazzclub Trends - Soulful Vibes

Дисковод: ASUS DRW-22B2ST Adapter: 2 ID: 1

Режим чтения : Достоверность
Использование точного потока : Да
Отключение кэша аудио : Да
Использование указателей C2 : Нет

Коррекция смещения при чтении : 6
Способность читать области Lead-in и Lead-out : Нет
Заполнение пропущенных сэмплов тишиной : Да
Удаление блоков с тишиной в начале и конце : Нет
При вычислениях CRC использовались нулевые сэмплы : Да
Интерфейс : Установленный внешний ASPI-интерфейс

Выходной формат : Внутренние WAV-операции
Формат сэмплов : 44.100 Гц; 16 бит; стерео


TOC извлечённого CD

Трек | Старт | Длительность | Начальный сектор | Конечный сектор
––––––––––––––––––––––––––––––––––-
1 | 0:00.00 | 4:23.71 | 0 | 19795
2 | 4:23.71 | 2:33.07 | 19796 | 31277
3 | 6:57.03 | 3:31.01 | 31278 | 47103
4 | 10:28.04 | 2:32.53 | 47104 | 58556
5 | 13:00.57 | 2:39.57 | 58557 | 70538
6 | 15:40.39 | 5:20.64 | 70539 | 94602
7 | 21:01.28 | 4:01.29 | 94603 | 112706
8 | 25:02.57 | 3:09.66 | 112707 | 126947
9 | 28:12.48 | 3:42.57 | 126948 | 143654
10 | 31:55.30 | 4:41.70 | 143655 | 164799
11 | 36:37.25 | 3:56.31 | 164800 | 182530
12 | 40:33.56 | 6:16.33 | 182531 | 210763
13 | 46:50.14 | 2:29.39 | 210764 | 221977
14 | 49:19.53 | 5:04.74 | 221978 | 244851
15 | 54:24.52 | 5:50.09 | 244852 | 271110
16 | 60:14.61 | 4:19.10 | 271111 | 290545
17 | 64:33.71 | 4:36.10 | 290546 | 311255
18 | 69:10.06 | 5:34.44 | 311256 | 336349


Характеристики диапазона извлечения и сообщения об ошибках

Выбранный диапазон

Имя файла E:\MP3Files\МУЗ РАБОЧИЙ\CUE2\Cal Tjader - Jazzclub Trends - Soulful Vibes.wav

Пиковый уровень 98.8 %
Скорость извлечения 3.6 X
Качество диапазона 99.9 %
CRC теста E340157C
CRC копии E340157C
Копирование… OK

Ошибок не произошло


AccurateRip: сводка

Трек 1 отсутствует в базе данных
Трек 2 отсутствует в базе данных
Трек 3 отсутствует в базе данных
Трек 4 отсутствует в базе данных
Трек 5 отсутствует в базе данных
Трек 6 отсутствует в базе данных
Трек 7 отсутствует в базе данных
Трек 8 отсутствует в базе данных
Трек 9 отсутствует в базе данных
Трек 10 отсутствует в базе данных
Трек 11 отсутствует в базе данных
Трек 12 отсутствует в базе данных
Трек 13 отсутствует в базе данных
Трек 14 отсутствует в базе данных
Трек 15 отсутствует в базе данных
Трек 16 отсутствует в базе данных
Трек 17 отсутствует в базе данных
Трек 18 отсутствует в базе данных

Ни одного трека нет в базе AccurateRip

Конец отчёта

==== Контрольная сумма отчёта 141BBDDE4CB02D8D5682C238375C91D8292C1B1C847F9E77432C9C275F9B22DC ====

[CUETools log; Date: 12.01.2020 0:59:04; Version: 2.1.4]
[CTDB TOCID: A5XawfcKycvV93YcCY.59XsQ.2I-] found.
Track | CTDB Status
1 | (32/32) Accurately ripped
2 | (32/32) Accurately ripped
3 | (32/32) Accurately ripped
4 | (32/32) Accurately ripped
5 | (32/32) Accurately ripped
6 | (32/32) Accurately ripped
7 | (32/32) Accurately ripped
8 | (32/32) Accurately ripped
9 | (32/32) Accurately ripped
10 | (32/32) Accurately ripped
11 | (32/32) Accurately ripped
12 | (32/32) Accurately ripped
13 | (32/32) Accurately ripped
14 | (32/32) Accurately ripped
15 | (31/32) Accurately ripped
16 | (32/32) Accurately ripped
17 | (30/32) Accurately ripped
18 | (32/32) Accurately ripped
[AccurateRip ID: 002cd9ef-0261f739-09118412] found.
Track [ CRC | V2 ] Status
01 [1b8b7b53|f77ef7c7] (07+06/15) Accurately ripped
02 [68700310|26ebcdd3] (07+06/15) Accurately ripped
03 [bf535289|50ba3333] (07+06/15) Accurately ripped
04 [7087edcb|6af00c5f] (07+06/15) Accurately ripped
05 [66220c1d|09e1ee92] (07+06/15) Accurately ripped
06 [c3777847|d2b270c7] (07+06/15) Accurately ripped
07 [7f124040|9ec4a071] (07+06/15) Accurately ripped
08 [59a32d6d|9dde2195] (07+06/15) Accurately ripped
09 [bdf71a45|52f16373] (07+06/15) Accurately ripped
10 [0327e58d|4c9ffc0b] (07+06/15) Accurately ripped
11 [edc15cf4|b9b7169f] (07+06/15) Accurately ripped
12 [b9eebe5a|b333753d] (07+06/15) Accurately ripped
13 [c6022d06|b2ae1f28] (07+06/15) Accurately ripped
14 [89d5e66a|fd964a93] (07+06/15) Accurately ripped
15 [5e0a63ac|c864ea52] (07+06/15) Accurately ripped
16 [fbfa3a81|594d4eec] (07+06/15) Accurately ripped
17 [7e360328|379e0cee] (07+06/15) Accurately ripped
18 [0b6a8709|dee4623a] (07+06/15) Accurately ripped
Offsetted by -30:
01 [3288ab2b] (00/15) No match (V2 was not tested)
02 [0fac4914] (00/15) No match (V2 was not tested)
03 [16fb8c0b] (00/15) No match (V2 was not tested)
04 [15086019] (00/15) No match (V2 was not tested)
05 [66f8f489] (00/15) No match (V2 was not tested)
06 [351de99f] (00/15) No match (V2 was not tested)
07 [ef2e1380] (00/15) No match (V2 was not tested)
08 [03c76977] (00/15) No match (V2 was not tested)
09 [6728d6ad] (00/15) No match (V2 was not tested)
10 [c105d1a7] (00/15) No match (V2 was not tested)
11 [f953ff92] (00/15) No match (V2 was not tested)
12 [cc22eb62] (00/15) No match (V2 was not tested)
13 [ef758664] (00/15) No match (V2 was not tested)
14 [7ad936e0] (00/15) No match (V2 was not tested)
15 [9b8d1dd4] (00/15) No match (V2 was not tested)
16 [d324dadf] (00/15) No match (V2 was not tested)
17 [fce00a42] (00/15) No match (V2 was not tested)
18 [026b7691] (00/15) No match (V2 was not tested)
Offsetted by -12:
01 [f18a5b43] (00/15) No match (V2 was not tested)
02 [44ee8578] (00/15) No match (V2 was not tested)
03 [15969cbd] (00/15) No match (V2 was not tested)
04 [18bb4eb7] (00/15) No match (V2 was not tested)
05 [ccde6915] (00/15) No match (V2 was not tested)
06 [f0ed3f37] (00/15) No match (V2 was not tested)
07 [125094c0] (00/15) No match (V2 was not tested)
08 [374b4571] (00/15) No match (V2 was not tested)
09 [01a498d5] (00/15) No match (V2 was not tested)
10 [824d7731] (00/15) No match (V2 was not tested)
11 [25959e00] (00/15) No match (V2 was not tested)
12 [8e039d2a] (00/15) No match (V2 was not tested)
13 [3cfd1d92] (00/15) No match (V2 was not tested)
14 [1d70d366] (00/15) No match (V2 was not tested)
15 [a9d847bc] (00/15) No match (V2 was not tested)
16 [eba4e10d] (00/15) No match (V2 was not tested)
17 [1746d2cc] (00/15) No match (V2 was not tested)
18 [a16ae6d9] (00/15) No match (V2 was not tested)

Track Peak [ CRC32 ] [W/O NULL] [ LOG ]
– 98,8 [E340157C] [07E2DAFC] CRC32
01 98,8 [665694E3] [6B5E75A3]
02 93,8 [640FB611] [5225EC84]
03 98,8 [956CB872] [C7A2C536]
04 98,8 [5146AE73] [5FDC3A56]
05 75,0 [B8818988] [A633307E]
06 98,8 [6E16C988] [A7F3C554]
07 98,8 [EAFFC88E] [038E9800]
08 90,3 [CE4A2109] [D8372B48]
09 88,6 [C9E47A92] [1D66B527]
10 98,8 [6B14BD36] [25751CD8]
11 98,8 [4FCD72DF] [DC30D7D7]
12 98,8 [346C0851] [8327F06B]
13 75,6 [7A8D9E21] [84AC3793]
14 96,1 [8088DE24] [0C027BED]
15 84,3 [B568EACB] [CA794831]
16 82,6 [A250C5D9] [CA97E24F]
17 67,6 [C1F27584] [BD096079]
18 81,1 [C796F89A] [314A5922]

Thanks to the original releaser

See also: