Tags
Language
Tags

Cal Tjader's Modern Mambo Quintet - Mambo With Tjader (1955) [Reissue 1992]

Posted By: gribovar
Cal Tjader's Modern Mambo Quintet - Mambo With Tjader (1955) [Reissue 1992]

Cal Tjader's Modern Mambo Quintet - Mambo With Tjader (1955) [Reissue 1992]
EAC Rip | APE (image+.cue+log) - 143 MB | MP3 CBR 320 kbps (LAME 3.93) - 90 MB | Covers - 16 MB
Genre: Latin Jazz, Afro-Cuban Jazz | RAR 3% Rec. | Label: OJC/Fantasy (OJCCD 271-2)

Mambo with Tjader was one of vibraphonist and composer Cal Tjader's first major recordings. Fascinated with the rhythms and atmospheres of Latin music, Tjader was one of the first musicians to successfully fuse South American musical styles with straight-ahead jazz. In retrospect, the lush, laid-back, vibes-heavy groove of Tjader's inventions anticipates the "lounge" music of the '50s and '60s - offering the sort of soft, swinging soundtrack appropriate for the consumption of dry martinis on leatherette love seats.
But Mambo with Tjader is valuable for more than mere kitsch factor. Over the course of the album's 12 tracks, a rich tapestry of tropical percussion works through three rhythmic models - the mambo, the cha-cha, and the bolero. Overlaid with jazz structures and Tjader's easygoing vibes playing, this set is a tasty cross-section of early Tropicalia. While the disc lacks the hot salsa that would characterize El Sonido Nuevo or the large-scale orchestrations of the composer's collaborations with Lalo Schifrin, Mambo with Tjader is a vintage exploration of the fusion of jazz and Latin music.
Tracklist:
01. Mamblues (Mambo)
02. Midnight Sun (Cha-Cha-Cha)
03. Sonny Boy [Mambo)
04. Cherry (Cha-Cha-Cha)
05. I'll Remember April (Bolero)
06. This Can't Be Love (Mambo)
07. Tenderly (Bolero)
08. Dearly Beloved (Cha-Cha-Cha)
09. Chloe (Mambo)
10. Lucero (Mambo)
11. Bye Bye Blues (Mambo)
12. Autumn Leaves (Bolero)

Total time: 38:20

EAC extraction logfile from 14. July 2008, 19:09 for CD
Cal Tjader / Mambo with Tjader

Used drive : PLEXTOR DVDR PX-750A Adapter: 0 ID: 1
Read mode : Secure with NO C2, accurate stream, disable cache
Read offset correction : 102
Overread into Lead-In and Lead-Out : No

Used output format : Internal WAV Routines
44.100 Hz; 16 Bit; Stereo

Other options :
Fill up missing offset samples with silence : Yes
Delete leading and trailing silent blocks : No
Installed external ASPI interface


Range status and errors
Selected range
Filename E:\Donkey Files\Cal Tjader's Modern Mambo Quintet - Mambo with Tjader (1954, OJC) [eac-ape]\CDImage.wav

Peak level 92.3 %
Range quality 100.0 %
CRC 7DA67502
Copy OK

No errors occured

End of status report

[CUETools log; Date: 05.05.2021 17:51:48; Version: 2.1.4]
[CTDB TOCID: INVE2mklZmKaRPLSVqfbX4LdA90-] found.
Track | CTDB Status
1 | (15/15) Accurately ripped
2 | (15/15) Accurately ripped
3 | (15/15) Accurately ripped
4 | (15/15) Accurately ripped
5 | (15/15) Accurately ripped
6 | (15/15) Accurately ripped
7 | (15/15) Accurately ripped
8 | (15/15) Accurately ripped
9 | (15/15) Accurately ripped
10 | (15/15) Accurately ripped
11 | (15/15) Accurately ripped
12 | (14/15) Accurately ripped
[AccurateRip ID: 00112cf2-00a11ca5-9a08fb0c] found.
Track [ CRC | V2 ] Status
01 [c7c001a7|df5259a1] (00+03/22) Accurately ripped
02 [b6cd5e53|6e442c40] (00+03/22) Accurately ripped
03 [40c63298|2fa5a065] (00+03/22) Accurately ripped
04 [3ba74833|ac76030f] (00+03/22) Accurately ripped
05 [f43c6699|b6d8e81b] (00+03/22) Accurately ripped
06 [0bc2579f|37fbda35] (00+03/22) Accurately ripped
07 [67790f21|2490d4f7] (00+03/22) Accurately ripped
08 [25134c92|22ced597] (00+03/22) Accurately ripped
09 [09749ff9|faa1c711] (00+03/22) Accurately ripped
10 [12031561|9dc3f308] (00+03/22) Accurately ripped
11 [f6b2fcb2|ded0cb87] (00+03/22) Accurately ripped
12 [6e73ba1b|9a35f442] (00+03/22) Accurately ripped
Offsetted by 105:
01 [fc52de7e] (04/22) Accurately ripped
02 [11ec13f6] (04/22) Accurately ripped
03 [768e5749] (04/22) Accurately ripped
04 [e095c640] (04/22) Accurately ripped
05 [236a80cb] (04/22) Accurately ripped
06 [169bb9f1] (04/22) Accurately ripped
07 [b9c4d8d5] (04/22) Accurately ripped
08 [8b6f3fd1] (04/22) Accurately ripped
09 [ad4f6827] (04/22) Accurately ripped
10 [e1d4cb6b] (04/22) Accurately ripped
11 [aaf4a71a] (04/22) Accurately ripped
12 [16be49ec] (04/22) Accurately ripped
Offsetted by -559:
01 [7cd353e9] (00/22) No match (V2 was not tested)
02 [8a06d029] (00/22) No match (V2 was not tested)
03 [3e9b0dcc] (00/22) No match (V2 was not tested)
04 [eb06b86c] (00/22) No match (V2 was not tested)
05 [0fe05523] (00/22) No match (V2 was not tested)
06 [a5ba2afc] (00/22) No match (V2 was not tested)
07 [08ec1642] (00/22) No match (V2 was not tested)
08 [93c2d5dc] (00/22) No match (V2 was not tested)
09 [485744c6] (00/22) No match (V2 was not tested)
10 [268d994e] (00/22) No match (V2 was not tested)
11 [c3ae4b0e] (00/22) No match (V2 was not tested)
12 [d1c7d659] (00/22) No match (V2 was not tested)

Track Peak [ CRC32 ] [W/O NULL] [ LOG ]
– 92,3 [7DA67502] [CF6084BC] CRC32
01 92,3 [7FF88CE0] [2895959F]
02 80,8 [DEDCF78A] [5CB09D01]
03 79,4 [74C06B4B] [12957C2E]
04 73,5 [7C329205] [E1CAA580]
05 69,1 [0262C04B] [56BD914E]
06 81,5 [B0BD86DE] [1C1F4A59]
07 87,2 [29C289E6] [0B0D95E7]
08 73,3 [6A2FD9E6] [12BFA74D]
09 72,9 [15B439A4] [6AFE8C4A]
10 87,7 [F7F699B9] [E291E91C]
11 70,6 [D5242055] [52CF108B]
12 89,0 [9D0D7A89] [78CFC2B6]

Thanks to dreadbull

See also: