Subcategories

Carlo Ipata, Auser Musici - Handel: Catone (2017)

Posted By: ArlegZ
Carlo Ipata, Auser Musici - Handel: Catone (2017)

Carlo Ipata, Auser Musici - Handel: Catone (2017)
EAC | FLAC | Image (Cue & Log) ~ 655 Mb | Total time: 65:25+59:50 | Scans included
Classical | Label: Glossa | # GCD 923511 | Recorded: 2016

By bringing Catone to disc Carlo Ipata is celebrating the pasticcio, especially those curated by George Frideric Handel, as is the case with this new Glossa release. In a co-production involving the Fondazione Teatro di Pisa and the Händel Festspiele Halle, Ipata brings a further slant on Handel’s operatic career in London; whilst being busy with running the second Royal Academy of Music and writing his own operas, the composer was striving to present London audiences with selections from the best of recent Italian operas by other composers – all at the same time as giving his star singers the opportunity to show off early in the opera company’s season. One result was Catone in 1732, with music by Leo, Hasse, Vivaldi, Vinci, Porpora as well as by Handel himself; company members included Senesino, Anna Maria Strada del Pò and Antonio Montagnana.
For this Halle performance Carlo Ipata has brought together a modern-day starry cast – Sonia Prina, Roberta Invernizzi, Riccardo Novaro, Kristina Hammarstrom and Lucia Cirillo – to sing the tale of the noble Roman Republican senator finding himself on the losing side of the battles with Julius Caesar and with his daughter being in love with the conquering general. Angela Romagnoli provides a resounding defence of the Handelian pasticcio in her booklet essay.
The pasticcio’s plot functions admirably, the arias are stunning, both individually and collectively: the recording is a feast of sparkling crowd-pleasing virtuosity.

Performer:
Catone - Sonia Prina
Cesare - Riccardo Novaro
Emilia - Roberta Invernizzi
Arbace - Kristina Hammarstrom
Marzia - Lucia Cirillo
Auser Musici
Conductor - Carlo Ipata

Track List:
CD1:
Parte Prima
01. Sinfonia
02. Recitativo: Tutto ha sconvolto (Catone, Arbace, Marzia)
03. Aria: Con sì bel nome in fronte (Catone) [Leonardo Leo, Catone. Venice, 1729]
04. Recitativo: M’ami Arbace? (Marzia, Arbace)
05. Aria: Non ti minaccio sdegno (Marzia) [Leonardo Leo, Catone]
06. Recitativo: Che giurai! Che promisi! (Arbace)
07. Aria: Un raggio di speme (Arbace) [Johann Adolph Hasse, Dalisa. Venice, 1730 (Un raggio di stella)]
08. Recitativo: Senz’armi e solo (Cesare, Catone, Emilia)
09. Aria: Pensa di chi sei figlia (Catone) [Leonardo Leo, Catone]
10. Recitativo: Tu taci Emilia? (Cesare, Emilia)
11. Aria: Non paventa del mar le procelle (Cesare) [Nicola Porpora, Siface. Rome, 1730]
12. Recitativo: Sposo amato (Emilia)
13. Aria: Priva del caro sposo (Emilia) [Nicola Porpora, Germanico. Rome, 1732]
14. Recitativo: Pur ti riveggio, o Marzia (Cesare, Marzia)
15. Aria: Vaghe labbra voi fingete (Emilia) [Johann Adolph Hasse, Ulderica. Naples, 1729]
16. Recitativo: Ah, troppo dissi!E quasi tutto Emilia (Marzia)
17. Aria: È follia se nascondete (Marzia) [Leonardo Leo, Catone]
18. Recitativo: Il senato a Catone (Catone) 1:05
19. Aria: Mi conosci e sai chi sono? (Catone) [Leonardo Leo, Catone]
20. Recitativo: Dunque il servirti (Arbace, Marzia)
21. Aria: Vaghe luci, luci belle [Antonio Vivaldi, Ipermestra. Florence, 1727]
22. Recitativo: A tanto eccesso giunse Catone? (Cesare, Emilia, Marzia)
23. Aria: Agitato da più venti (Cesare) [Antonio Vivaldi?]
CD2:
Parte Seconda
01. Recitativo: Si vuole ad onta mia (Catone, Cesare, Marzia)
02. Aria: So che nascondi (Cesare) [Antonio Vivaldi, Orlando. Venice, 1727 (Benché nasconda)]
03. Recitativo: Signor, so che a momenti (Arbace, Catone, Emilia, Marzia)
04. Aria: Dovea svenarti all’ora (Catone) [Leonardo Leo, Catone]
05. Recitativo: Sarete paghi al fin (Marzia, Emilia, Arbace)
06. Aria: Fra tanti pensieri (Emilia) [Johann Adolph Hasse, Demetrio. Venice, 1732]
07. Recitativo: Ah Cesare che fai? (Marzia, Cesare)
08. Aria: Confusa, smarrita spiegarti vorrei (Marzia) [Leonardo Leo, Catone]
09. Recitativo: M’inganno, o pur Cesare è questi? (Arbace, Cesare)
10. Aria: Quando piomba improvvisa saetta (Arbace) [Nicola Porpora, Poro. Torino, 1731]
11. Recitativo: Del rivale all’aita (Cesare)
12. Aria: È ver che all’amo intorno (Cesare) [Nicola Porpora, Poro]
13. Recitativo: È giunto il tempo (Emilia, Cesare, Catone)
14. Aria: Vede il nocchier la sponda (Emilia, part A) [Johann Adolph Hasse, Euristero. Venice, 1732]
15. Recitativo: Lascia che un‘alma grata (Cesare, Catone, Voci)
16. Aria: Vede il nocchier la sponda (Emilia, part B & da capo) [Johann Adolph Hasse, Euristero]
17. Recitativo: Vinceste inique stelle (Catone, Marzia, Arbace)
18. Aria: Per darvi alcun pegno (Catone) [Leonardo Leo, Catone]
19. Sinfonia (Marcia)
20. Recitativo: Del vincitore è il moderar se stesso (Cesare, Marzia, Emilia)
21. Aria: Vo solcando un mar crudele (Marzia) [Leonardo Vinci, Artaserse. Roma, 1730]


Exact Audio Copy V1.3 from 2. September 2016

EAC extraction logfile from 25. October 2019, 3:17

Sonia Prina, Riccardo Novaro, Roberta Invernizzi, Kristina Hammarström, Lucia Cirillo / Handel - Catone (Disc 1)

Used drive : ATAPI iHAS124 F Adapter: 1 ID: 0

Read mode : Secure
Utilize accurate stream : Yes
Defeat audio cache : Yes
Make use of C2 pointers : No

Read offset correction : 6
Overread into Lead-In and Lead-Out : No
Fill up missing offset samples with silence : Yes
Delete leading and trailing silent blocks : No
Null samples used in CRC calculations : Yes
Used interface : Native Win32 interface for Win NT & 2000

Used output format : User Defined Encoder
Selected bitrate : 1024 kBit/s
Quality : High
Add ID3 tag : No
Command line compressor : C:\Program Files (x86)\Exact Audio Copy\Flac\flac.exe
Additional command line options : -6 -V -T "ARTIST=%artist%" -T "TITLE=%title%" -T "ALBUM=%albumtitle%" -T "DATE=%year%" -T "TRACKNUMBER=%tracknr%" -T "GENRE=%genre%" -T "COMMENT=%comment%" -T "BAND=%albuminterpret%" -T "ALBUMARTIST=%albuminterpret%" -T "COMPOSER=%composer%" %haslyrics%–tag-from-file=LYRICS="%lyricsfile%"%haslyrics% -T "DISCNUMBER=%cdnumber%" -T "TOTALDISCS=%totalcds%" -T "TOTALTRACKS=%numtracks%" %hascover%–picture="%coverfile%"%hascover% %source% -o %dest%

TOC of the extracted CD

Track | Start | Length | Start sector | End sector
––––––––––––––––––––––––––––-
1 | 0:00.00 | 2:42.62 | 0 | 12211
2 | 2:42.62 | 2:29.66 | 12212 | 23452
3 | 5:12.53 | 3:53.10 | 23453 | 40937
4 | 9:05.63 | 1:10.20 | 40938 | 46207
5 | 10:16.08 | 3:45.53 | 46208 | 63135
6 | 14:01.61 | 0:33.73 | 63136 | 65683
7 | 14:35.59 | 4:53.56 | 65684 | 87714
8 | 19:29.40 | 2:33.46 | 87715 | 99235
9 | 22:03.11 | 3:04.70 | 99236 | 113105
10 | 25:08.06 | 0:20.45 | 113106 | 114650
11 | 25:28.51 | 5:27.41 | 114651 | 139216
12 | 30:56.17 | 0:21.45 | 139217 | 140836
13 | 31:17.62 | 6:11.28 | 140837 | 168689
14 | 37:29.15 | 1:32.62 | 168690 | 175651
15 | 39:02.02 | 4:58.56 | 175652 | 198057
16 | 44:00.58 | 0:09.35 | 198058 | 198767
17 | 44:10.18 | 4:39.18 | 198768 | 219710
18 | 48:49.36 | 1:05.30 | 219711 | 224615
19 | 49:54.66 | 4:08.45 | 224616 | 243260
20 | 54:03.36 | 0:40.04 | 243261 | 246264
21 | 54:43.40 | 3:10.28 | 246265 | 260542
22 | 57:53.68 | 1:16.43 | 260543 | 266285
23 | 59:10.36 | 6:12.72 | 266286 | 294257

Range status and errors

Selected range

Filename C:\EACRip\HANDEL\Handel - Catone (Carlo Ipata) (2017)\CD1\Handel - Catone (Disc 1) - Carlo Ipata.wav

Peak level 97.3 %
Extraction speed 9.4 X
Range quality 100.0 %
Test CRC 97D5B7F8
Copy CRC 97D5B7F8
Copy OK

No errors occurred

AccurateRip summary

Track 1 accurately ripped (confidence 3) [59A6097C] (AR v2)
Track 2 accurately ripped (confidence 3) [25912B30] (AR v2)
Track 3 accurately ripped (confidence 3) [45CF8869] (AR v2)
Track 4 accurately ripped (confidence 3) [2AC442B6] (AR v2)
Track 5 accurately ripped (confidence 3) [C0C4175C] (AR v2)
Track 6 accurately ripped (confidence 3) [DD057345] (AR v2)
Track 7 accurately ripped (confidence 3) [7835E2D7] (AR v2)
Track 8 accurately ripped (confidence 3) [F3F1734B] (AR v2)
Track 9 accurately ripped (confidence 3) [46D10E0C] (AR v2)
Track 10 accurately ripped (confidence 3) [4F4F91CE] (AR v2)
Track 11 accurately ripped (confidence 3) [AB618CBA] (AR v2)
Track 12 accurately ripped (confidence 3) [1EEC35F9] (AR v2)
Track 13 accurately ripped (confidence 3) [6ECE9C52] (AR v2)
Track 14 accurately ripped (confidence 3) [E53F12BA] (AR v2)
Track 15 accurately ripped (confidence 3) [0F680045] (AR v2)
Track 16 accurately ripped (confidence 3) [39AA4111] (AR v2)
Track 17 accurately ripped (confidence 3) [E58497B0] (AR v2)
Track 18 accurately ripped (confidence 3) [727B9D84] (AR v2)
Track 19 accurately ripped (confidence 3) [609148BE] (AR v2)
Track 20 accurately ripped (confidence 3) [F94C3882] (AR v2)
Track 21 accurately ripped (confidence 3) [82978030] (AR v2)
Track 22 accurately ripped (confidence 3) [C5B50AB0] (AR v2)
Track 23 accurately ripped (confidence 3) [C1147F0C] (AR v2)

All tracks accurately ripped

End of status report

–– CUETools DB Plugin V2.1.6

[CTDB TOCID: PDVk0ag8qn.ssbzzKCOYyW0atpU-] found
Submit result: PDVk0ag8qn.ssbzzKCOYyW0atpU- has been confirmed
Track | CTDB Status
1 | (6/6) Accurately ripped
2 | (6/6) Accurately ripped
3 | (6/6) Accurately ripped
4 | (6/6) Accurately ripped
5 | (6/6) Accurately ripped
6 | (6/6) Accurately ripped
7 | (6/6) Accurately ripped
8 | (6/6) Accurately ripped
9 | (6/6) Accurately ripped
10 | (6/6) Accurately ripped
11 | (6/6) Accurately ripped
12 | (6/6) Accurately ripped
13 | (6/6) Accurately ripped
14 | (6/6) Accurately ripped
15 | (6/6) Accurately ripped
16 | (6/6) Accurately ripped
17 | (6/6) Accurately ripped
18 | (6/6) Accurately ripped
19 | (6/6) Accurately ripped
20 | (6/6) Accurately ripped
21 | (6/6) Accurately ripped
22 | (6/6) Accurately ripped
23 | (6/6) Accurately ripped

==== Log checksum 27EE66B3812FE8BD472305704096F31C651634A9B5DD683FCAD7702EE82DA05F ====


Exact Audio Copy V1.3 from 2. September 2016

EAC extraction logfile from 25. October 2019, 13:48

Sonia Prina, Riccardo Novaro, Roberta Invernizzi, Kristina Hammarström, Lucia Cirillo / Handel - Catone (Disc 2)

Used drive : ATAPI iHAS124 F Adapter: 1 ID: 0

Read mode : Secure
Utilize accurate stream : Yes
Defeat audio cache : Yes
Make use of C2 pointers : No

Read offset correction : 6
Overread into Lead-In and Lead-Out : No
Fill up missing offset samples with silence : Yes
Delete leading and trailing silent blocks : No
Null samples used in CRC calculations : Yes
Used interface : Native Win32 interface for Win NT & 2000

Used output format : User Defined Encoder
Selected bitrate : 1024 kBit/s
Quality : High
Add ID3 tag : No
Command line compressor : C:\Program Files (x86)\Exact Audio Copy\Flac\flac.exe
Additional command line options : -6 -V -T "ARTIST=%artist%" -T "TITLE=%title%" -T "ALBUM=%albumtitle%" -T "DATE=%year%" -T "TRACKNUMBER=%tracknr%" -T "GENRE=%genre%" -T "COMMENT=%comment%" -T "BAND=%albuminterpret%" -T "ALBUMARTIST=%albuminterpret%" -T "COMPOSER=%composer%" %haslyrics%–tag-from-file=LYRICS="%lyricsfile%"%haslyrics% -T "DISCNUMBER=%cdnumber%" -T "TOTALDISCS=%totalcds%" -T "TOTALTRACKS=%numtracks%" %hascover%–picture="%coverfile%"%hascover% %source% -o %dest%

TOC of the extracted CD

Track | Start | Length | Start sector | End sector
––––––––––––––––––––––––––––-
1 | 0:00.00 | 2:29.41 | 0 | 11215
2 | 2:29.41 | 3:30.65 | 11216 | 27030
3 | 6:00.31 | 1:47.19 | 27031 | 35074
4 | 7:47.50 | 3:12.69 | 35075 | 49543
5 | 11:00.44 | 0:46.54 | 49544 | 53047
6 | 11:47.23 | 5:46.11 | 53048 | 79008
7 | 17:33.34 | 1:05.20 | 79009 | 83903
8 | 18:38.54 | 3:20.63 | 83904 | 98966
9 | 21:59.42 | 1:19.29 | 98967 | 104920
10 | 23:18.71 | 4:15.22 | 104921 | 124067
11 | 27:34.18 | 0:37.25 | 124068 | 126867
12 | 28:11.43 | 7:28.23 | 126868 | 160490
13 | 35:39.66 | 0:54.20 | 160491 | 164560
14 | 36:34.11 | 2:45.32 | 164561 | 176967
15 | 39:19.43 | 0:46.01 | 176968 | 180418
16 | 40:05.44 | 4:10.60 | 180419 | 199228
17 | 44:16.29 | 1:51.16 | 199229 | 207569
18 | 46:07.45 | 4:19.46 | 207570 | 227040
19 | 50:27.16 | 0:29.24 | 227041 | 229239
20 | 50:56.40 | 1:30.29 | 229240 | 236018
21 | 52:26.69 | 7:21.24 | 236019 | 269117

Range status and errors

Selected range

Filename C:\EACRip\HANDEL\Handel - Catone (Carlo Ipata) (2017)\CD2\Handel - Catone (Disc 2) - Carlo Ipata.wav

Peak level 90.9 %
Extraction speed 6.9 X
Range quality 99.9 %
Test CRC 2CE65E5C
Copy CRC 2CE65E5C
Copy OK

No errors occurred

AccurateRip summary

Track 1 accurately ripped (confidence 3) [332EBE62] (AR v2)
Track 2 accurately ripped (confidence 3) [FBB542E8] (AR v2)
Track 3 accurately ripped (confidence 3) [72FAF23B] (AR v2)
Track 4 accurately ripped (confidence 3) [DB7CBD84] (AR v2)
Track 5 accurately ripped (confidence 3) [E9346EE2] (AR v2)
Track 6 accurately ripped (confidence 3) [D2401310] (AR v2)
Track 7 accurately ripped (confidence 3) [F531FAE9] (AR v2)
Track 8 accurately ripped (confidence 3) [368C85FA] (AR v2)
Track 9 accurately ripped (confidence 3) [DDD6F0E4] (AR v2)
Track 10 accurately ripped (confidence 3) [9EEEF874] (AR v2)
Track 11 accurately ripped (confidence 3) [A4E92C7C] (AR v2)
Track 12 accurately ripped (confidence 3) [85372D08] (AR v2)
Track 13 accurately ripped (confidence 3) [0E38EAA0] (AR v2)
Track 14 accurately ripped (confidence 3) [9EAC5F2C] (AR v2)
Track 15 accurately ripped (confidence 3) [0592965B] (AR v2)
Track 16 accurately ripped (confidence 3) [A1D3520A] (AR v2)
Track 17 accurately ripped (confidence 3) [DB02B719] (AR v2)
Track 18 accurately ripped (confidence 3) [6A64943F] (AR v2)
Track 19 accurately ripped (confidence 3) [09B97B88] (AR v2)
Track 20 accurately ripped (confidence 3) [AF8C2420] (AR v2)
Track 21 accurately ripped (confidence 3) [447ADDC8] (AR v2)

All tracks accurately ripped

End of status report

–– CUETools DB Plugin V2.1.6

[CTDB TOCID: ftonGanKhJlWssT68M1QR_yEgq0-] found
Submit result: ftonGanKhJlWssT68M1QR_yEgq0- has been confirmed
Track | CTDB Status
1 | (7/7) Accurately ripped
2 | (7/7) Accurately ripped
3 | (7/7) Accurately ripped
4 | (7/7) Accurately ripped
5 | (7/7) Accurately ripped
6 | (7/7) Accurately ripped
7 | (7/7) Accurately ripped
8 | (7/7) Accurately ripped
9 | (7/7) Accurately ripped
10 | (7/7) Accurately ripped
11 | (7/7) Accurately ripped
12 | (7/7) Accurately ripped
13 | (7/7) Accurately ripped
14 | (7/7) Accurately ripped
15 | (7/7) Accurately ripped
16 | (7/7) Accurately ripped
17 | (7/7) Accurately ripped
18 | (7/7) Accurately ripped
19 | (7/7) Accurately ripped
20 | (7/7) Accurately ripped
21 | (7/7) Accurately ripped

==== Log checksum DAA4EFD683F153C342250137AFFD6CE0D44E8A3583FD1E99F27D1EDE8749228D ====

Carlo Ipata, Auser Musici - Handel: Catone (2017)

Thanks to the original releaser