Tags
Language
Tags

Carolyn Sampson, Anne-Catherine Bucher, Le Concert Lorrain - Les Sirènes: Thomas-Louis Bourgeois - Cantates (2012)

Posted By: ArlegZ
Carolyn Sampson, Anne-Catherine Bucher, Le Concert Lorrain - Les Sirènes: Thomas-Louis Bourgeois - Cantates (2012)

Carolyn Sampson, Anne-Catherine Bucher, Le Concert Lorrain - Les Sirènes: Thomas-Louis Bourgeois - Cantates (2012)
EAC | FLAC | Image (Cue & Log) ~ 325 Mb | Total time: 72:38 | Scans included
Classical | Label: Carus | CARUS83374 | Recorded: 2011

Thomas-Louis Bourgeois (1676–1751) is one of the masters of the French chamber cantata at the time of the Régence, when – at last – it was permissible to introduce Italian influences openly in France. His imaginative music, as elegant as it is compositionally skillful, forms a welcome complement to the works of contemporaries such as Campra or Rameau who are infinitely better known today. Carolyn Sampson and Le Concert Lorrain revive for us the charming insouciance of the Régence.

Performer:
Carolyn Sampson, soprano
Le Concert Lorrain
Anne-Catherine Bucher, conductor

Track List:
Les Sirènes
01. Prélude
02. Récit: Après avoir vaincu les peuples
03. Lentement et Tendrement: L'Amour
04. Récit: La flotte d'Ulisse charmée
05. Vivement: Fuyés fuyés éloignés vous
06. Récit: Par ces sages conseils
07. Gratieusement: Belles dans vos yeux
Borée
08. Récit: Dans les climats glacés
09. Gratieusement: Eole dans son vaste Empire
10. Récit: Quand Borée indigné
11. Vivement et très viste: Un orage affreux
12. Récit: C'est ainsi que Borée exerçoit
13. Récit: Dans ce moment
14. Gratieusement et marqué: Du couchant
Zéphire et Flore
15. Prélude, Gravement
16. Récit: L'Astre du jour brillant
17. Gracieusement: Prévenez la saison nouvelle
18. Récit, Orage: Pour réparer les tourmens
19. Gayment: Triomphez, Dieu du jour
20. Récit: Tout succède à mes voeux
21. Gracieusement: Philomelle revient
22. Récit: L'amour se fait senir à tout
23. Gayment: Mon amant revient en ce jour
Hippomène
24. Récit: Aux bords d'une onde fugitive
25. Gayment: Les fleurs s'empressent d'éclore
26. Récit: La Mere des amours protege
27. Gayment et gracieusement: Couronne tes feux par la gloire
28. Récit: Hippomène animé
29. Gayment: Deja loin de la barriere
30. Récit: Hippomène lassé d'une course
31. Gayment et graceiusement: Quand l'amour nous est favorable
Psiché
32. Récit: Dans ce palais délicieux
33. Air, gayment et gracieusement: L'amour se soumet à vos charmes
34. Récit: Mais hélas! quel bonheur
35. Air, gracieusement: Connoissez mieux les lois de l'amoureux empire
36. Récit: Psiché par ce refus
37. Gravement et tendrement: Revenez cher amant puis-je vivre sans vous?
38. Récit: Dans ses malheurs, Psiché conserve l'espérance
39. Gayment: Amans songez à vous déffendre


Exact Audio Copy V1.3 from 2. September 2016

EAC extraction logfile from 1. March 2020, 9:46

Carolyn Sampson / Bourgeois - 'Les Sirènes' Cantates

Used drive : hp DVD-RAM GH82N Adapter: 1 ID: 0

Read mode : Secure
Utilize accurate stream : Yes
Defeat audio cache : Yes
Make use of C2 pointers : No

Read offset correction : 667
Overread into Lead-In and Lead-Out : No
Fill up missing offset samples with silence : Yes
Delete leading and trailing silent blocks : No
Null samples used in CRC calculations : Yes
Used interface : Native Win32 interface for Win NT & 2000

Used output format : User Defined Encoder
Selected bitrate : 1024 kBit/s
Quality : High
Add ID3 tag : No
Command line compressor : C:\Program Files (x86)\Exact Audio Copy\FLAC\FLAC.EXE
Additional command line options : -6 -V -T "ARTIST=%artist%" -T "TITLE=%title%" -T "ALBUM=%albumtitle%" -T "DATE=%year%" -T "TRACKNUMBER=%tracknr%" -T "GENRE=%genre%" -T "COMMENT=%comment%" -T "BAND=%albuminterpret%" -T "ALBUMARTIST=%albuminterpret%" -T "COMPOSER=%composer%" %haslyrics%–tag-from-file=LYRICS="%lyricsfile%"%haslyrics% -T "DISCNUMBER=%cdnumber%" -T "TOTALDISCS=%totalcds%" -T "TOTALTRACKS=%numtracks%" %hascover%–picture="%coverfile%"%hascover% %source% -o %dest%


TOC of the extracted CD

Track | Start | Length | Start sector | End sector
––––––––––––––––––––––––––––-
1 | 0:00.00 | 0:42.66 | 0 | 3215
2 | 0:42.66 | 0:55.53 | 3216 | 7393
3 | 1:38.44 | 6:17.69 | 7394 | 35737
4 | 7:56.38 | 1:08.38 | 35738 | 40875
5 | 9:05.01 | 2:54.33 | 40876 | 53958
6 | 11:59.34 | 0:28.08 | 53959 | 56066
7 | 12:27.42 | 4:19.74 | 56067 | 75565
8 | 16:47.41 | 0:49.14 | 75566 | 79254
9 | 17:36.55 | 2:40.26 | 79255 | 91280
10 | 20:17.06 | 0:22.47 | 91281 | 92977
11 | 20:39.53 | 2:24.45 | 92978 | 103822
12 | 23:04.23 | 2:13.71 | 103823 | 113868
13 | 25:18.19 | 1:09.36 | 113869 | 119079
14 | 26:27.55 | 2:16.49 | 119080 | 129328
15 | 28:44.29 | 0:48.43 | 129329 | 132971
16 | 29:32.72 | 0:39.57 | 132972 | 135953
17 | 30:12.54 | 3:10.34 | 135954 | 150237
18 | 33:23.13 | 1:52.16 | 150238 | 158653
19 | 35:15.29 | 2:08.13 | 158654 | 168266
20 | 37:23.42 | 0:27.22 | 168267 | 170313
21 | 37:50.64 | 2:43.26 | 170314 | 182564
22 | 40:34.15 | 0:33.41 | 182565 | 185080
23 | 41:07.56 | 2:26.23 | 185081 | 196053
24 | 43:34.04 | 1:06.24 | 196054 | 201027
25 | 44:40.28 | 2:38.37 | 201028 | 212914
26 | 47:18.65 | 1:06.00 | 212915 | 217864
27 | 48:24.65 | 2:23.26 | 217865 | 228615
28 | 50:48.16 | 0:50.48 | 228616 | 232413
29 | 51:38.64 | 2:28.18 | 232414 | 243531
30 | 54:07.07 | 1:04.67 | 243532 | 248398
31 | 55:11.74 | 1:26.74 | 248399 | 254922
32 | 56:38.73 | 1:15.18 | 254923 | 260565
33 | 57:54.16 | 3:29.27 | 260566 | 276267
34 | 61:23.43 | 0:56.35 | 276268 | 280502
35 | 62:20.03 | 1:16.36 | 280503 | 286238
36 | 63:36.39 | 2:39.34 | 286239 | 298197
37 | 66:15.73 | 3:12.27 | 298198 | 312624
38 | 69:28.25 | 0:51.57 | 312625 | 316506
39 | 70:20.07 | 2:18.03 | 316507 | 326859


Range status and errors

Selected range

Filename C:\rips\Carolyn Sampson - Bourgeois - 'Les Sirènes' Cantates.wav

Peak level 94.9 %
Extraction speed 2.8 X
Range quality 99.9 %
Test CRC B436CBCF
Copy CRC 832BA9AE
Copy OK

No errors occurred


AccurateRip summary

Track 1 accurately ripped (confidence 5) [F258C32D] (AR v2)
Track 2 accurately ripped (confidence 5) [B6ADF1CC] (AR v2)
Track 3 accurately ripped (confidence 5) [CD09B174] (AR v2)
Track 4 accurately ripped (confidence 5) [97810BE4] (AR v2)
Track 5 accurately ripped (confidence 5) [14DE5538] (AR v2)
Track 6 accurately ripped (confidence 5) [8B1AF3C8] (AR v2)
Track 7 accurately ripped (confidence 5) [6DD18B79] (AR v2)
Track 8 accurately ripped (confidence 5) [746F0D44] (AR v2)
Track 9 accurately ripped (confidence 5) [24CE4E9C] (AR v2)
Track 10 accurately ripped (confidence 5) [4D3191E1] (AR v2)
Track 11 accurately ripped (confidence 5) [D0D13040] (AR v2)
Track 12 accurately ripped (confidence 5) [80CBB5F0] (AR v2)
Track 13 accurately ripped (confidence 5) [6B5A590B] (AR v2)
Track 14 accurately ripped (confidence 5) [B0F24F24] (AR v2)
Track 15 accurately ripped (confidence 5) [AF19B1BF] (AR v2)
Track 16 accurately ripped (confidence 5) [54F20813] (AR v2)
Track 17 accurately ripped (confidence 5) [97F5885A] (AR v2)
Track 18 accurately ripped (confidence 5) [A14F9D4F] (AR v2)
Track 19 accurately ripped (confidence 5) [2E7E3332] (AR v2)
Track 20 accurately ripped (confidence 5) [2BF1D54E] (AR v2)
Track 21 accurately ripped (confidence 5) [EBEFDA1D] (AR v2)
Track 22 accurately ripped (confidence 5) [75035D90] (AR v2)
Track 23 accurately ripped (confidence 5) [C5683388] (AR v2)
Track 24 accurately ripped (confidence 5) [44C718AB] (AR v2)
Track 25 accurately ripped (confidence 5) [FF2F27BE] (AR v2)
Track 26 accurately ripped (confidence 5) [69A1E4D6] (AR v2)
Track 27 accurately ripped (confidence 5) [7AC77ED1] (AR v2)
Track 28 accurately ripped (confidence 5) [EE4E71F8] (AR v2)
Track 29 accurately ripped (confidence 5) [D1A0D8B4] (AR v2)
Track 30 accurately ripped (confidence 5) [E31693E0] (AR v2)
Track 31 accurately ripped (confidence 5) [4DA858B4] (AR v2)
Track 32 accurately ripped (confidence 5) [85C36D8F] (AR v2)
Track 33 accurately ripped (confidence 5) [F31243FD] (AR v2)
Track 34 accurately ripped (confidence 5) [AD4043E8] (AR v2)
Track 35 accurately ripped (confidence 5) [D62B8E02] (AR v2)
Track 36 accurately ripped (confidence 5) [77E559B4] (AR v2)
Track 37 accurately ripped (confidence 5) [7CC05846] (AR v2)
Track 38 accurately ripped (confidence 5) [2072FFD1] (AR v2)
Track 39 accurately ripped (confidence 5) [5540D1E3] (AR v2)

All tracks accurately ripped

End of status report

–– CUETools DB Plugin V2.1.6

[CTDB TOCID: fnpb7QQNTBMSxvdUDrL9f5wIq8Q-] found
Submit result: fnpb7QQNTBMSxvdUDrL9f5wIq8Q- has been confirmed
Track | CTDB Status
1 | (5/5) Accurately ripped
2 | (5/5) Accurately ripped
3 | (5/5) Accurately ripped
4 | (5/5) Accurately ripped
5 | (5/5) Accurately ripped
6 | (5/5) Accurately ripped
7 | (5/5) Accurately ripped
8 | (5/5) Accurately ripped
9 | (5/5) Accurately ripped
10 | (5/5) Accurately ripped
11 | (5/5) Accurately ripped
12 | (5/5) Accurately ripped
13 | (5/5) Accurately ripped
14 | (5/5) Accurately ripped
15 | (5/5) Accurately ripped
16 | (5/5) Accurately ripped
17 | (5/5) Accurately ripped
18 | (5/5) Accurately ripped
19 | (5/5) Accurately ripped
20 | (5/5) Accurately ripped
21 | (5/5) Accurately ripped
22 | (5/5) Accurately ripped
23 | (5/5) Accurately ripped
24 | (5/5) Accurately ripped
25 | (5/5) Accurately ripped
26 | (5/5) Accurately ripped
27 | (5/5) Accurately ripped
28 | (5/5) Accurately ripped
29 | (5/5) Accurately ripped
30 | (5/5) Accurately ripped
31 | (5/5) Accurately ripped
32 | (5/5) Accurately ripped
33 | (5/5) Accurately ripped
34 | (5/5) Accurately ripped
35 | (5/5) Accurately ripped
36 | (5/5) Accurately ripped
37 | (5/5) Accurately ripped
38 | (5/5) Accurately ripped
39 | (5/5) Accurately ripped


==== Log checksum 78D35CDE1A4D0DCC83AA3A2FA7AD74E6D98D4074E2B77EEF47B365A4828FCC38 ====

Carolyn Sampson, Anne-Catherine Bucher, Le Concert Lorrain - Les Sirènes: Thomas-Louis Bourgeois - Cantates (2012)

Thanks to the original releaser