Subcategories

Aron Quartett & Massimo Giuseppe Bianchi - Castelnuovo-Tedesco: Piano Quintets Nos. 1 & 2 (2016)

Posted By: SERTiL
Aron Quartett & Massimo Giuseppe Bianchi - Castelnuovo-Tedesco: Piano Quintets Nos. 1 & 2 (2016)

Aron Quartett & Massimo Giuseppe Bianchi - Castelnuovo-Tedesco: Piano Quintets Nos. 1 & 2
Classical | WEB FLAC (tracks) & d. booklet | 64:20 min | 400 MB
Label: CPO | Tracks: 08 | Rls.date: 2016

Mario Castelnuovo-Tedesco (1895-1968) would write two piano quintets during the course of his career. The first, with its baroque eclecticisms, is indicative of his characteristic film music, with its pathos and capacity for creating scenic spaces. The Second Quintet, composed in Beverly Hills in 1951 and counted as his op.155, is entitled Memories of the Tuscan Countryside. The work is one of cheerful, contemplative serenity, and might be understood as a quiet meditation on nostalgic yearning for his native Italy.

TRACKLIST
01. Piano Quintet No. 1, Op. 69: I. Lento e sognante
02. Piano Quintet No. 1, Op. 69: II. Andante
03. Piano Quintet No. 1, Op. 69: III. Scherzo. Leggero e danzante
04. Piano Quintet No. 1, Op. 69: IV. Vivo e impetuoso
05. Piano Quintet No. 2, Op. 155 "Ricordi della campagna toscana": I. Le colline. Sereno e scorrevole
06. Piano Quintet No. 2, Op. 155 "Ricordi della campagna toscana": II. I cipressi. Lento e grave
07. Piano Quintet No. 2, Op. 155 "Ricordi della campagna toscana": III. Processione nel mese di Maria. Allegretto innocente
08. Piano Quintet No. 2, Op. 155 "Ricordi della campagna toscana": IV. La mietitura. Vivace e ritmico

PERFORMER: auCDtect Task Manager, ver. 1.6.0 RC1 build 1.6.0.1
Copyright © 2008-2010 y-soft. All rights reserved

ANALYZER: auCDtect: CD records authenticity detector, version 0.8.2
Copyright © 2004 Oleg Berngardt. All rights reserved.
Copyright © 2004 Alexander Djourik. All rights reserved.


FILE: 08. Piano Quintet No. 2, Op. 155 Ricordi della campagna toscana IV. La mietitura. Vivace e ritmico.flac
Size: 51784795 Hash: 90C28C422656CE955598299AED4DF617 Accuracy: -m0
Conclusion: CDDA 100%
Signature: 25338EE1E85405E9558F6A8ABF9A2CB9618560B6
FILE: 07. Piano Quintet No. 2, Op. 155 Ricordi della campagna toscana III. Processione nel mese di Maria. Allegretto innocente.flac
Size: 34008958 Hash: B16198D2BFE1A5933725AB77BBB1854C Accuracy: -m0
Conclusion: CDDA 100%
Signature: F8BCC44C0A3F49CB94A7F299B02E504F9B37272A
FILE: 06. Piano Quintet No. 2, Op. 155 Ricordi della campagna toscana II. I cipressi. Lento e grave.flac
Size: 53966886 Hash: FD93A05F050B6D6D712EF421647781D3 Accuracy: -m0
Conclusion: CDDA 100%
Signature: ACC5B8B52D480E664F5F8D5FBD057FE60DA80CFF
FILE: 05. Piano Quintet No. 2, Op. 155 Ricordi della campagna toscana I. Le colline. Sereno e scorrevole.flac
Size: 55292949 Hash: 072B99E749125443A327721413FEB697 Accuracy: -m0
Conclusion: CDDA 100%
Signature: 43CF21AFB432E570E77E883F09ACD9AB31BF8A7A
FILE: 04. Piano Quintet No. 1, Op. 69 IV. Vivo e impetuoso.flac
Size: 55219629 Hash: C930DEE49A3B8D6C29066EB06EE1AFC5 Accuracy: -m0
Conclusion: CDDA 100%
Signature: AA6AF00887D544E15C3CA5F4C35DAB868D067091
FILE: 03. Piano Quintet No. 1, Op. 69 III. Scherzo. Leggero e danzante.flac
Size: 19407085 Hash: 148052F3C0A7ECFCCA4C64141F782D43 Accuracy: -m0
Conclusion: CDDA 100%
Signature: DA5DA1F7755CFA361B0164F27FF2B97AC51738FB
FILE: 02. Piano Quintet No. 1, Op. 69 II. Andante.flac
Size: 26598139 Hash: CEFE1F7BA410169480CF25123A1F1E20 Accuracy: -m0
Conclusion: CDDA 100%
Signature: 55445582DC9C56E881D69882190B0E72F63058E4
FILE: 01. Piano Quintet No. 1, Op. 69 I. Lento e sognante.flac
Size: 59081399 Hash: 976B7D8349B54C13CB25595B82C94AA0 Accuracy: -m0
Conclusion: CDDA 100%
Signature: B91F90D63BE9D0636F39212BF802365943EFE80B

foobar2000 1.3.7 / Dynamic Range Meter 1.1.1
log date: 2017-09-18 14:19:13

––––––––––––––––––––––––––––––––––––––––
Analyzed: Aron Quartett, Quartett & Massimo Giuseppe Bianchi / Castelnuovo-Tedesco: Piano Quintets Nos. 1 & 2
––––––––––––––––––––––––––––––––––––––––

DR Peak RMS Duration Track
––––––––––––––––––––––––––––––––––––––––
DR9 -0.10 dB -12.69 dB 10:11 01-Piano Quintet No. 1, Op. 69: I. Lento e sognante
DR12 -0.10 dB -16.60 dB 5:20 02-Piano Quintet No. 1, Op. 69: II. Andante
DR10 -0.10 dB -13.72 dB 3:35 03-Piano Quintet No. 1, Op. 69: III. Scherzo. Leggero e danzante
DR9 -0.10 dB -11.94 dB 9:11 04-Piano Quintet No. 1, Op. 69: IV. Vivo e impetuoso
DR10 -0.10 dB -14.19 dB 9:51 05-Piano Quintet No. 2, Op. 155 "Ricordi della campagna toscana": I. Le colline. Sereno e scorrevole
DR12 -0.10 dB -15.76 dB 10:15 06-Piano Quintet No. 2, Op. 155 "Ricordi della campagna toscana": II. I cipressi. Lento e grave
DR14 -0.10 dB -17.71 dB 6:31 07-Piano Quintet No. 2, Op. 155 "Ricordi della campagna toscana": III. Processione nel mese di Maria. Allegretto innocente
DR10 -0.10 dB -13.80 dB 9:32 08-Piano Quintet No. 2, Op. 155 "Ricordi della campagna toscana": IV. La mietitura. Vivace e ritmico
––––––––––––––––––––––––––––––––––––––––

Number of tracks: 8
Official DR value: DR11

Samplerate: 44100 Hz
Channels: 2
Bits per sample: 16
Bitrate: 721 kbps
Codec: FLAC
================================================================================


Aron Quartett & Massimo Giuseppe Bianchi - Castelnuovo-Tedesco: Piano Quintets Nos. 1 & 2 (2016)


Thanks to the Original customer.