Tags
Language
Tags

Catherine Bott, Purcell Quartet - Handel: Tra le fiamme. Italian Cantatas and Trio Sonatas (1998)

Posted By: ArlegZ
Catherine Bott, Purcell Quartet - Handel: Tra le fiamme. Italian Cantatas and Trio Sonatas (1998)

Catherine Bott, Purcell Quartet - Handel: Tra le fiamme. Italian Cantatas and Trio Sonatas (1998)
EAC | FLAC | Image (Cue & Log) ~ 351 Mb | Total time: 69:47 | Scans included
Classical | Label: Chandos | CHAN0620 | Recorded: 1997

The idea of alternating trio sonatas with cantatas is a happy one, based perhaps on the idea that people play CDs for pleasure and not simply for reference. The two cantatas are rarities on record. Tra le fiamme is a spectacularly scored piece, its textures enriched by a viola da gamba obbligato and wind instruments (recorders in some numbers, oboes in another) as well as strings.
Notte placida e cheta is a delightful evocation of night, sleep and amorous reflection, with its opening aria full of sinuous, voluptuous interweaving violin lines and its soft, gently accompanied recitatives; it ends – a slightly rude awakening, perhaps, to chime with the words – with a fugal aria in which the singer takes one of the four contrapuntal parts along with the violins and the bass. Catherine Bott sings them very responsively, both to the words and to the sense of Handel's lines, with neatly placed detail and some attractively floated phrases. The viol obbligato is done in accomplished style by Richard Boothby, who supplies much of the continuo harmony with multiple stops.
In the Trio Sonatas there's some splendidly athletic playing from the violins of the Purcell Quartet, which plays with its usual spruce rhythms and conversational give and take. These are probably the most appealing performances currently available of these works.
— Gramophone Classical Music Guide

Performer:
Catherine Bott, soprano
Purcell Quartet

Track List:
Trio Sonata, HWV399 in G major, Op. 5 No. 4
01. I. Allegro
02. II. A tempo ordinario - Allegro non presto
03. III. Passacaille
04. IV. Gigue: Presto
05. V. Menuet: Allegro moderato
Tra le fiamme, HWV170
06. Aria: Tra le fiamme
07. Recitativo: Dedalo già le fortunate penne - Aria: Pien di nuovo e bel diletto
08. Recitativo: Sì, sì, pur troppo è vero - Aria: Voli per l'aria
09. Recitativo: L'uomo che nacque per salire - Aria: Tra le fiamme
Trio Sonata in B flat major, Op. 5, No. 7, HWV 402
10. I. Larghetto
11. II. Allegro, Ma non presto
12. III. Adagio - Allegro
13. IV. Gavotte: Allegro
14. V. Menuet: Andante allegro
Notte placida e cheta, HWV 142
15. Recitativo: Notte placida e cheta - Aria: Zeffiretti, deh! venite
16. Recitativo: Momento fortunato - Aria: Per un istante
17. Recitativo accompagnato: Ma già sento (But now I feel) - Aria: Luci belle
18. Recitativo accompagnato: Oh delizie d'amor - Aria: Che non si dà qua
Trio Sonata, HWV 390a in G minor, Op. 2 No. 5
19. I. Larghetto
20. II. Allegro
21. III. Adagio
22. IV. Allegro


Exact Audio Copy V1.3 from 2. September 2016

EAC extraction logfile from 3. December 2019, 13:24

Catherine Bott / Handel - Tra le fiamme. Italian Cantatas and Trio Sonatas

Used drive : ATAPI iHAS124 F Adapter: 1 ID: 0

Read mode : Secure
Utilize accurate stream : Yes
Defeat audio cache : Yes
Make use of C2 pointers : No

Read offset correction : 6
Overread into Lead-In and Lead-Out : No
Fill up missing offset samples with silence : Yes
Delete leading and trailing silent blocks : No
Null samples used in CRC calculations : Yes
Used interface : Native Win32 interface for Win NT & 2000

Used output format : User Defined Encoder
Selected bitrate : 1024 kBit/s
Quality : High
Add ID3 tag : No
Command line compressor : C:\Program Files (x86)\Exact Audio Copy\Flac\flac.exe
Additional command line options : -6 -V -T "ARTIST=%artist%" -T "TITLE=%title%" -T "ALBUM=%albumtitle%" -T "DATE=%year%" -T "TRACKNUMBER=%tracknr%" -T "GENRE=%genre%" -T "COMMENT=%comment%" -T "BAND=%albuminterpret%" -T "ALBUMARTIST=%albuminterpret%" -T "COMPOSER=%composer%" %haslyrics%–tag-from-file=LYRICS="%lyricsfile%"%haslyrics% -T "DISCNUMBER=%cdnumber%" -T "TOTALDISCS=%totalcds%" -T "TOTALTRACKS=%numtracks%" %hascover%–picture="%coverfile%"%hascover% %source% -o %dest%


TOC of the extracted CD

Track | Start | Length | Start sector | End sector
––––––––––––––––––––––––––––-
1 | 0:00.00 | 1:56.35 | 0 | 8734
2 | 1:56.35 | 4:15.00 | 8735 | 27859
3 | 6:11.35 | 4:16.22 | 27860 | 47081
4 | 10:27.57 | 1:10.68 | 47082 | 52399
5 | 11:38.50 | 1:46.22 | 52400 | 60371
6 | 13:24.72 | 6:47.60 | 60372 | 90956
7 | 20:12.57 | 6:26.45 | 90957 | 119951
8 | 26:39.27 | 3:54.38 | 119952 | 137539
9 | 30:33.65 | 3:08.52 | 137540 | 151691
10 | 33:42.42 | 2:02.15 | 151692 | 160856
11 | 35:44.57 | 2:06.05 | 160857 | 170311
12 | 37:50.62 | 1:43.18 | 170312 | 178054
13 | 39:34.05 | 1:22.27 | 178055 | 184231
14 | 40:56.32 | 2:04.15 | 184232 | 193546
15 | 43:00.47 | 7:24.28 | 193547 | 226874
16 | 50:25.00 | 3:12.20 | 226875 | 241294
17 | 53:37.20 | 3:32.30 | 241295 | 257224
18 | 57:09.50 | 2:33.15 | 257225 | 268714
19 | 59:42.65 | 2:20.05 | 268715 | 279219
20 | 62:02.70 | 2:34.70 | 279220 | 290839
21 | 64:37.65 | 1:56.10 | 290840 | 299549
22 | 66:34.00 | 3:14.52 | 299550 | 314151


Range status and errors

Selected range

Filename C:\EACRip\HANDEL\00 - CANTATAS\Handel - Tra le fiamme. Italian Cantatas and Trio Sonatas (Catherine Bott, The Purcell Quartet) (1998)\Handel - Tra le fiamme. Italian Cantatas and Trio Sonatas - Catherine Bott, The Purcell Quartet.wav

Peak level 98.8 %
Extraction speed 9.6 X
Range quality 99.9 %
Test CRC CA91BAED
Copy CRC CA91BAED
Copy OK

No errors occurred


AccurateRip summary

Track 1 accurately ripped (confidence 5) [EFF33313] (AR v2)
Track 2 accurately ripped (confidence 5) [5A37853B] (AR v2)
Track 3 accurately ripped (confidence 5) [73C54E52] (AR v2)
Track 4 accurately ripped (confidence 5) [91B745C1] (AR v2)
Track 5 accurately ripped (confidence 5) [451938CF] (AR v2)
Track 6 accurately ripped (confidence 5) [C33B7843] (AR v2)
Track 7 accurately ripped (confidence 5) [104666A5] (AR v2)
Track 8 accurately ripped (confidence 5) [8C7EF825] (AR v2)
Track 9 accurately ripped (confidence 5) [B33064F5] (AR v2)
Track 10 accurately ripped (confidence 5) [23FE0C8D] (AR v2)
Track 11 accurately ripped (confidence 5) [0B80E79A] (AR v2)
Track 12 accurately ripped (confidence 5) [C8F34BF4] (AR v2)
Track 13 accurately ripped (confidence 5) [ED98976B] (AR v2)
Track 14 accurately ripped (confidence 5) [98078AEE] (AR v2)
Track 15 accurately ripped (confidence 5) [AAEA4BEB] (AR v2)
Track 16 accurately ripped (confidence 5) [E149EAFC] (AR v2)
Track 17 accurately ripped (confidence 5) [C77C714D] (AR v2)
Track 18 accurately ripped (confidence 5) [364ADD9C] (AR v2)
Track 19 accurately ripped (confidence 5) [A20735CA] (AR v2)
Track 20 accurately ripped (confidence 5) [31E17734] (AR v2)
Track 21 accurately ripped (confidence 5) [4F7B86F7] (AR v2)
Track 22 accurately ripped (confidence 5) [CEE2201F] (AR v2)

All tracks accurately ripped

End of status report

–– CUETools DB Plugin V2.1.6

[CTDB TOCID: rvBt_ojXUKIcZQ.Ciw7Wk0gUV8c-] found
Submit result: rvBt_ojXUKIcZQ.Ciw7Wk0gUV8c- has been confirmed
Track | CTDB Status
1 | (8/8) Accurately ripped
2 | (8/8) Accurately ripped
3 | (8/8) Accurately ripped
4 | (8/8) Accurately ripped
5 | (8/8) Accurately ripped
6 | (8/8) Accurately ripped
7 | (8/8) Accurately ripped
8 | (8/8) Accurately ripped
9 | (8/8) Accurately ripped
10 | (8/8) Accurately ripped
11 | (8/8) Accurately ripped
12 | (8/8) Accurately ripped
13 | (8/8) Accurately ripped
14 | (8/8) Accurately ripped
15 | (8/8) Accurately ripped
16 | (8/8) Accurately ripped
17 | (8/8) Accurately ripped
18 | (8/8) Accurately ripped
19 | (8/8) Accurately ripped
20 | (8/8) Accurately ripped
21 | (8/8) Accurately ripped
22 | (8/8) Accurately ripped


==== Log checksum A0759AD97B29D7F9F11A76FE85640381D914BFE984662F4202A6B8BD7CEE12F1 ====

Catherine Bott, Purcell Quartet - Handel: Tra le fiamme. Italian Cantatas and Trio Sonatas (1998)

Thanks to the original releaser