Subcategories

Valentino Worlitzsch & Elisabeth Brauß - Beethoven, Ysaÿe, Schumann & Britten: Cello Works (2017)

Posted By: SERTiL
Valentino Worlitzsch & Elisabeth Brauß - Beethoven, Ysaÿe, Schumann & Britten: Cello Works (2017)

Valentino Worlitzsch & Elisabeth Brauß - Beethoven, Ysaÿe, Schumann & Britten: Cello Works
Classical | WEB FLAC (tracks) & d. booklet | 66:32 min | 256 MB
Label: Genuin | Tracks: 14 | Rls.date: 2017

The cellist Valentino Worlitzsch delivers a fiery debut in his Genuin Classics CD on the Primavera-Edition, the series that so meritoriously presents the award winners of the German Music Competition. Why the young musician won the first prize in the 2016 competition and was a favourite of the audience is revealed in these wonderful recordings. Together with the excellent pianist Elisabeth Brauss, Worlitzsch plays multifaceted and spirited musical works by Beethoven, Schumann, and Britten and presents himself as a soloist with the truly electrifying solo sonata by Eugène Ysaÿe.

TRACKLIST
01. Cello Sonata No. 5 in D Major, Op. 102 No. 2: I. Allegro con brio
02. Cello Sonata No. 5 in D Major, Op. 102 No. 2: II. Adagio con moto sentimento d'affetto
03. Cello Sonata No. 5 in D Major, Op. 102 No. 2: III. Allegro-Allegro fugato
04. Sonata for Solo Cello, Op. 28: I. Grave
05. Sonata for Solo Cello, Op. 28: II. Intermezzo
06. Sonata for Solo Cello, Op. 28: III. In modo di recitativo
07. Sonata for Solo Cello, Op. 28: IV. Finale con brio
08. Adagio & Allegro, Op. 70: Adagio
09. Adagio & Allegro, Op. 70: Allegro
10. Cello Sonata in C Major, Op. 65: I. Dialogo
11. Cello Sonata in C Major, Op. 65: II. Scherzo-pizzicato
12. Cello Sonata in C Major, Op. 65: III. Elegia
13. Cello Sonata in C Major, Op. 65: IV. Marcia
14. Cello Sonata in C Major, Op. 65: V. Moto perpetuo

PERFORMER: auCDtect Task Manager, ver. 1.6.0 RC1 build 1.6.0.1
Copyright © 2008-2010 y-soft. All rights reserved

ANALYZER: auCDtect: CD records authenticity detector, version 0.8.2
Copyright © 2004 Oleg Berngardt. All rights reserved.
Copyright © 2004 Alexander Djourik. All rights reserved.


FILE: 14. Cello Sonata in C Major, Op. 65 V. Moto perpetuo.flac
Size: 10737257 Hash: F8B13E5096B99D9FEEE09E2A629D7A6D Accuracy: -m0
Conclusion: CDDA 100%
Signature: 24BC8CE06A0A365C7B2B2EC2B6970558695B3BE6
FILE: 13. Cello Sonata in C Major, Op. 65 IV. Marcia.flac
Size: 9935732 Hash: F442C5C872E08A34F13959C6062A3A81 Accuracy: -m0
Conclusion: CDDA 100%
Signature: ED8E4ADA9FB500902B7BBF5D37B2A95E37BD3C03
FILE: 12. Cello Sonata in C Major, Op. 65 III. Elegia.flac
Size: 24395437 Hash: 067DED3431A4BCF96D3A51AE4FB419CF Accuracy: -m0
Conclusion: CDDA 100%
Signature: B8BE91F540BEB5D7124359D3C51AC6DAC467FA4E
FILE: 11. Cello Sonata in C Major, Op. 65 II. Scherzo-pizzicato.flac
Size: 7624420 Hash: 03288B8BF7B80B17D1EE39079290FC71 Accuracy: -m0
Conclusion: CDDA 100%
Signature: E039FC95D1859630CC9C2727680552078B5033EE
FILE: 10. Cello Sonata in C Major, Op. 65 I. Dialogo.flac
Size: 28303222 Hash: 1549E7F903223E7318FA6BA0B2E1D9E8 Accuracy: -m0
Conclusion: CDDA 99%
Signature: 9505207BCB41DCEA762006EB8B2C9F9D8B95C32D
FILE: 09. Adagio & Allegro, Op. 70 Allegro.flac
Size: 25045497 Hash: D89A5C44DD0CC1F0F79090EBEBB33C33 Accuracy: -m0
Conclusion: CDDA 100%
Signature: E552A25D4ACF0A9D19240E844D34BFFC64CF487E
FILE: 08. Adagio & Allegro, Op. 70 Adagio.flac
Size: 18448569 Hash: 02FCA99E4F8CDC459DD7CAB4D3FB275D Accuracy: -m0
Conclusion: CDDA 100%
Signature: 18D17E8DFFFEAA22749D6C6A7E21E98404AADB6C
FILE: 07. Sonata for Solo Cello, Op. 28 IV. Finale con brio.flac
Size: 17092468 Hash: 0DAC143B55F2CE2E2FA5BC4A633179BC Accuracy: -m0
Conclusion: CDDA 100%
Signature: 6ECDE28FFF22FC5A888C844B29E81B90D4785A43
FILE: 06. Sonata for Solo Cello, Op. 28 III. In modo di recitativo.flac
Size: 7097894 Hash: E79136DE43D4CA5BAF07E2FE9144C4D4 Accuracy: -m0
Conclusion: CDDA 100%
Signature: 0CA1AAC286F4197D495A5E99B50ED448D6048AE8
FILE: 05. Sonata for Solo Cello, Op. 28 II. Intermezzo.flac
Size: 14294525 Hash: B7E8D25E0DF75A7064700521B79FA204 Accuracy: -m0
Conclusion: CDDA 100%
Signature: 78585756EAE42A71E5503E85B9B379D387840433
FILE: 04. Sonata for Solo Cello, Op. 28 I. Grave.flac
Size: 25310146 Hash: 7A05B750C92E940EA22ED19DB42B8D09 Accuracy: -m0
Conclusion: CDDA 100%
Signature: DA440A81A4325B7F6E642B6AE5CBF39B8707FB87
FILE: 03. Cello Sonata No. 5 in D Major, Op. 102 No. 2 III. Allegro-Allegro fugato.flac
Size: 19014948 Hash: 060A93B5365D336E32A7D0F8CA2FBA69 Accuracy: -m0
Conclusion: CDDA 100%
Signature: B75ACE08F1343B3E72E34F5E18FCD7843CF84FD8
FILE: 02. Cello Sonata No. 5 in D Major, Op. 102 No. 2 II. Adagio con moto sentimento d'affetto.flac
Size: 31573404 Hash: 07779298EBA6896B1B2CA024FAD1D4E7 Accuracy: -m0
Conclusion: CDDA 100%
Signature: FA023709C26E6DDCCF3C26F73538362C95319677
FILE: 01. Cello Sonata No. 5 in D Major, Op. 102 No. 2 I. Allegro con brio.flac
Size: 28261798 Hash: 6B32A42F7915F6B381A7B7A9930E744C Accuracy: -m0
Conclusion: CDDA 100%
Signature: 9EA7ED164C3E4B2DDDD9426C747617193068AB8E

foobar2000 1.3.7 / Dynamic Range Meter 1.1.1
log date: 2017-10-09 18:11:40

––––––––––––––––––––––––––––––––––––––––
Analyzed: Valentino Worlitzsch / Beethoven, Ysaÿe, Schumann & Britten: Cello Works
––––––––––––––––––––––––––––––––––––––––

DR Peak RMS Duration Track
––––––––––––––––––––––––––––––––––––––––
DR12 -2.04 dB -18.62 dB 6:33 01-Cello Sonata No. 5 in D Major, Op. 102 No. 2: I. Allegro con brio
DR15 -6.50 dB -27.50 dB 9:30 02-Cello Sonata No. 5 in D Major, Op. 102 No. 2: II. Adagio con moto sentimento d'affetto
DR11 -1.91 dB -17.91 dB 4:19 03-Cello Sonata No. 5 in D Major, Op. 102 No. 2: III. Allegro-Allegro fugato
DR11 -2.88 dB -19.80 dB 5:51 04-Sonata for Solo Cello, Op. 28: I. Grave
DR14 -3.39 dB -22.63 dB 3:33 05-Sonata for Solo Cello, Op. 28: II. Intermezzo
DR10 -3.53 dB -22.90 dB 2:11 06-Sonata for Solo Cello, Op. 28: III. In modo di recitativo
DR10 -3.01 dB -17.34 dB 3:48 07-Sonata for Solo Cello, Op. 28: IV. Finale con brio
DR13 -4.00 dB -23.29 dB 4:48 08-Adagio & Allegro, Op. 70: Adagio
DR10 -2.53 dB -16.90 dB 4:54 09-Adagio & Allegro, Op. 70: Allegro
DR11 -1.59 dB -19.39 dB 7:31 10-Cello Sonata in C Major, Op. 65: I. Dialogo
DR12 -1.92 dB -19.93 dB 2:23 11-Cello Sonata in C Major, Op. 65: II. Scherzo-pizzicato
DR12 -2.43 dB -21.83 dB 6:39 12-Cello Sonata in C Major, Op. 65: III. Elegia
DR10 -1.90 dB -16.51 dB 2:08 13-Cello Sonata in C Major, Op. 65: IV. Marcia
DR11 -0.18 dB -17.27 dB 2:28 14-Cello Sonata in C Major, Op. 65: V. Moto perpetuo
––––––––––––––––––––––––––––––––––––––––

Number of tracks: 14
Official DR value: DR12

Samplerate: 44100 Hz
Channels: 2
Bits per sample: 16
Bitrate: 572 kbps
Codec: FLAC
================================================================================


Valentino Worlitzsch & Elisabeth Brauß - Beethoven, Ysaÿe, Schumann & Britten: Cello Works (2017)


Thanks to the Original customer.