Subcategories
Tags
Language
Tags

Charles Mackerras, Prague Chamber Orchestra - Mozart: Eine Kleine Nachtmusik, "Posthorn" Serenade (1985)

Posted By: ArlegZ
Charles Mackerras, Prague Chamber Orchestra - Mozart: Eine Kleine Nachtmusik, "Posthorn" Serenade (1985)

Charles Mackerras, Prague Chamber Orchestra - Mozart: Eine Kleine Nachtmusik, "Posthorn" Serenade (1985)
EAC | FLAC | Image (Cue & Log) ~ 278 Mb | Total time: 65:42 | Scans included
Classical | Label: Telarc | # CD 80108 | Recorded: 1984

The Prague Chamber Orchestra contributes some very good string playing to this Mozart reading by Sir Charles Mackerras. The approach is modern but well informed, with clean, light, agile, and luminous results. Mackerras observes the repeats (including that of the first movement recapitulation) and chooses excellent tempos. The Romance is especially lovely. Telarc's recording yields a fairly realistic concert-hall perspective, but the distant pickup and reverberation tend to muddy the texture a little. The coupling is an excellent account of the Posthorn Serenade.
–Ted Libbey

Performer:
Prague Chamber Orchestra
Charles Mackerras, conductor

Track List:
Serenade No. 13 in G major, K525 'Eine kleine Nachtmusik'
01. I. Allegro
02. II. Romance: Andante
03. III. Menuetto: Allegretto
04. IV. Rondo: Allegro
Serenade No. 9 in D major, K320 'Posthorn'
05. I. Adagio maestoso - Allegro con spirito
06. II. Menuetto: Allegretto
07. III. Concertante: Andante grazioso
08. IV. Rondeau: Allegro ma non troppo
09. V. Andantino
10. VI. Menuetto. Trio I. Trio II
11. VII. Finale: Presto


Exact Audio Copy V1.6 from 23. October 2020

EAC extraction logfile from 16. February 2021, 22:04

Charles Mackerras / Mozart: Eine Kleine Nachtmusik; Posthorn Serenade

Used drive : HL-DT-STDVDRAM GH24NSD5 Adapter: 1 ID: 0

Read mode : Secure
Utilize accurate stream : Yes
Defeat audio cache : Yes
Make use of C2 pointers : No

Read offset correction : 6
Overread into Lead-In and Lead-Out : No
Fill up missing offset samples with silence : Yes
Delete leading and trailing silent blocks : No
Null samples used in CRC calculations : Yes
Used interface : Native Win32 interface for Win NT & 2000

Used output format : User Defined Encoder
Selected bitrate : 1024 kBit/s
Quality : High
Add ID3 tag : No
Command line compressor : C:\Program Files (x86)\Exact Audio Copy\FLAC\FLAC.EXE
Additional command line options : -6 -V -T "ARTIST=%artist%" -T "TITLE=%title%" -T "ALBUM=%albumtitle%" -T "DATE=%year%" -T "TRACKNUMBER=%tracknr%" -T "GENRE=%genre%" -T "COMMENT=%comment%" -T "BAND=%albuminterpret%" -T "ALBUMARTIST=%albuminterpret%" -T "COMPOSER=%composer%" %haslyrics%–tag-from-file=LYRICS="%lyricsfile%"%haslyrics% -T "DISCNUMBER=%cdnumber%" -T "TOTALDISCS=%totalcds%" -T "TOTALTRACKS=%numtracks%" %hascover%–picture="%coverfile%"%hascover% %source% -o %dest%


TOC of the extracted CD

Track | Start | Length | Start sector | End sector
––––––––––––––––––––––––––––-
1 | 0:00.33 | 8:10.07 | 33 | 36789
2 | 8:10.40 | 5:43.50 | 36790 | 62564
3 | 13:54.15 | 2:27.58 | 62565 | 73647
4 | 16:21.73 | 5:19.07 | 73648 | 97579
5 | 21:41.05 | 8:01.35 | 97580 | 133689
6 | 29:42.40 | 4:09.53 | 133690 | 152417
7 | 33:52.18 | 7:14.40 | 152418 | 185007
8 | 41:06.58 | 5:43.32 | 185008 | 210764
9 | 46:50.15 | 9:50.33 | 210765 | 255047
10 | 56:40.48 | 5:00.15 | 255048 | 277562
11 | 61:40.63 | 4:01.45 | 277563 | 295682


Range status and errors

Selected range

Filename I:\Rips\Mozart WA - Eine Kleine Nachtmusik, Posthorn Serenade - Mackerras\Charles Mackerras - Mozart- Eine Kleine Nachtmusik; Posthorn Serenade.wav

Peak level 61.1 %
Extraction speed 2.0 X
Range quality 100.0 %
Test CRC 7B2C7E1B
Copy CRC 7B2C7E1B
Copy OK

No errors occurred


AccurateRip summary

Track 1 accurately ripped (confidence 5) [081FD00F] (AR v2)
Track 2 accurately ripped (confidence 5) [23D6C22C] (AR v2)
Track 3 accurately ripped (confidence 5) [91D39FAD] (AR v2)
Track 4 accurately ripped (confidence 5) [577AF826] (AR v2)
Track 5 accurately ripped (confidence 5) [F1333329] (AR v2)
Track 6 accurately ripped (confidence 5) [BB3D9C27] (AR v2)
Track 7 accurately ripped (confidence 4) [567A79DA] (AR v2)
Track 8 accurately ripped (confidence 4) [96AE241A] (AR v2)
Track 9 accurately ripped (confidence 4) [75639D08] (AR v2)
Track 10 accurately ripped (confidence 4) [30D9C2AF] (AR v2)
Track 11 accurately ripped (confidence 5) [4FD3FD24] (AR v2)

All tracks accurately ripped

End of status report

–– CUETools DB Plugin V2.1.6

[CTDB TOCID: yp2RACQpybh5TXp1sMyHjGZc75w-] found
Submit result: yp2RACQpybh5TXp1sMyHjGZc75w- has been confirmed
Track | CTDB Status
1 | (16/16) Accurately ripped
2 | (16/16) Accurately ripped
3 | (16/16) Accurately ripped
4 | (16/16) Accurately ripped
5 | (16/16) Accurately ripped
6 | (16/16) Accurately ripped
7 | (16/16) Accurately ripped
8 | (15/16) Accurately ripped
9 | (13/16) Accurately ripped
10 | (16/16) Accurately ripped
11 | (16/16) Accurately ripped


==== Log checksum F12E2141FCBA746BFA4A1A20CA5FB00794E89B51B23E7E647B49351F893793DE ====

Charles Mackerras, Prague Chamber Orchestra - Mozart: Eine Kleine Nachtmusik, "Posthorn" Serenade (1985)

Thanks to the original releaser