Tags
Language
Tags

Charles Medlam, London Baroque - Handel: Aci, Galatea e Polifemo, 3 Sonates pour flute a bec et basse continue (1998)

Posted By: ArlegZ
Charles Medlam, London Baroque - Handel: Aci, Galatea e Polifemo, 3 Sonates pour flute a bec et basse continue (1998)

Charles Medlam, London Baroque - Handel: Aci, Galatea e Polifemo, 3 Sonates pour flûte à bec et basse continue (1998)
EAC | FLAC | Image (Cue & Log) ~ 491 Mb | Total time: 106:10 | Scans included
Classical | Label: Harmonia Mundi | # HMA 1901253.54 | Recorded: 1986

"…[The] 'Serenata a tre'…is brimming with energy and melodic invention, every aria a delight. The three singers give sparkling performances and London Baroque dispatches the brightly variegated score with much aplomb…"
–BBC Music


Performer:
Aci - Emma Kirkby
Galatea - Carolyn Watkinson
Polifemo - David Thomas
London Baroque
Michel Piguet, flûte à bec
John Toll, clavecin
Charles Medlam, dir. & violonchelle

Track List:
CD1:
01. Duetto. Sorge il dì
02. Recit. Vanti, o cara / Aria. Sforzano a piangere
03. Recit. E qual nova sventura / Aria. Che non può la gelosia
04. Recit. Ma qual orrido suono
05. Aria. Sibilar l'angui d'Aletto
06. Recit. Deh lascia, oh Polifemo / Aria. Benchè tuoni e l'etra avampi
07. Recit. Cadrai depressa / Aria. Non sempre, no, crudele
08. Recit. Folle quanto mi rido / Aria. Dell'aquila l'artigli
09. Recit. Meglio spiega / Aria. Precipitoso nel mar
10. Recit. Si, t'intendo inumano / Aria. S'agita
11. Recit. So che le cinosure / Aria. Proverà
12. Recit. Ingrata, se mi nieghi / Aria. Fra l'ombre e gl'orrori
13. Recit. Ma che? / Aria. Qui l'augel
14. Recit. Giunsi al fin mio tesoro / Aria. Se m'ami, oh caro
CD2:
01. Recit. Qui su l'alto del monte / Dolce amico
02. Recit. Or poichè sordi sono / Già và da balza in balza
03. Recit & Aria. Oh Dio, mio ben, soccorso!
04. Recit. Misera, e dove sono? / Aria. Impara, ingrata
05. Recit. Ah tiranno, inumano! / Aria. Del mar fra l'onde
06. Recit. Ferma! ma già nel mare
07. Aria. Chi ben ama ha per oggetti
08. Sonate en Fa majeur, op.1 n°11 F major
09. Sonate en Ut majeur, op.1 n°7 C major
10. Sonate en Sol majeur transposée en Fa majeur G major


Exact Audio Copy V1.6 from 23. October 2020

EAC extraction logfile from 31. July 2021, 11:02

Charles Medlam, London Baroque / Handel - Aci, Galatea e Polifemo CD1

Used drive : PIONEER DVD-RW DVR-218L Adapter: 1 ID: 0

Read mode : Secure
Utilize accurate stream : Yes
Defeat audio cache : Yes
Make use of C2 pointers : No

Read offset correction : 6
Overread into Lead-In and Lead-Out : No
Fill up missing offset samples with silence : Yes
Delete leading and trailing silent blocks : No
Null samples used in CRC calculations : Yes
Used interface : Native Win32 interface for Win NT & 2000

Used output format : User Defined Encoder
Selected bitrate : 128 kBit/s
Quality : High
Add ID3 tag : No
Command line compressor : C:\Program Files\Exact Audio Copy\Flac\flac.exe
Additional command line options : -V -8 -T "Date=%year%" -T "Genre=%genre%" %source%


TOC of the extracted CD

Track | Start | Length | Start sector | End sector
––––––––––––––––––––––––––––-
1 | 0:00.00 | 3:38.35 | 0 | 16384
2 | 3:38.35 | 6:19.00 | 16385 | 44809
3 | 9:57.35 | 5:09.70 | 44810 | 68054
4 | 15:07.30 | 1:11.05 | 68055 | 73384
5 | 16:18.35 | 4:12.12 | 73385 | 92296
6 | 20:30.47 | 4:20.15 | 92297 | 111811
7 | 24:50.62 | 2:52.45 | 111812 | 124756
8 | 27:43.32 | 4:36.10 | 124757 | 145466
9 | 32:19.42 | 3:27.30 | 145467 | 161021
10 | 35:46.72 | 5:42.58 | 161022 | 186729
11 | 41:29.55 | 2:39.12 | 186730 | 198666
12 | 44:08.67 | 6:39.10 | 198667 | 228601
13 | 50:48.02 | 7:21.20 | 228602 | 261696
14 | 58:09.22 | 5:01.70 | 261697 | 284341


Range status and errors

Selected range

Filename C:\ArlegZ\Handel - Aci, Galatea e Polifemo - Charles Medlam CD1.wav

Peak level 97.3 %
Extraction speed 2.0 X
Range quality 100.0 %
Test CRC 7005AAD7
Copy CRC 7005AAD7
Copy OK

No errors occurred


AccurateRip summary

Track 1 accurately ripped (confidence 11) [B44E76E9] (AR v2)
Track 2 accurately ripped (confidence 11) [10656585] (AR v2)
Track 3 accurately ripped (confidence 11) [0A074C9A] (AR v2)
Track 4 accurately ripped (confidence 11) [D81547DB] (AR v2)
Track 5 accurately ripped (confidence 11) [BD313B70] (AR v2)
Track 6 accurately ripped (confidence 11) [2E553D54] (AR v2)
Track 7 accurately ripped (confidence 11) [A5FBC084] (AR v2)
Track 8 accurately ripped (confidence 11) [6E240B5D] (AR v2)
Track 9 accurately ripped (confidence 11) [73580779] (AR v2)
Track 10 accurately ripped (confidence 11) [80D7D9F6] (AR v2)
Track 11 accurately ripped (confidence 11) [8DEAA8E4] (AR v2)
Track 12 accurately ripped (confidence 11) [5E395F86] (AR v2)
Track 13 accurately ripped (confidence 11) [68085B9A] (AR v2)
Track 14 accurately ripped (confidence 11) [7EAD40CB] (AR v2)

All tracks accurately ripped

End of status report

–– CUETools DB Plugin V2.1.6

[CTDB TOCID: 2q_IINZRbdOQdURvq92lxagyiwY-] found
Submit result: 2q_IINZRbdOQdURvq92lxagyiwY- has been confirmed
Track | CTDB Status
1 | (16/16) Accurately ripped
2 | (16/16) Accurately ripped
3 | (16/16) Accurately ripped
4 | (16/16) Accurately ripped
5 | (16/16) Accurately ripped
6 | (16/16) Accurately ripped
7 | (16/16) Accurately ripped
8 | (16/16) Accurately ripped
9 | (16/16) Accurately ripped
10 | (16/16) Accurately ripped
11 | (16/16) Accurately ripped
12 | (16/16) Accurately ripped
13 | (16/16) Accurately ripped
14 | (15/16) Accurately ripped


==== Log checksum 1D936BC7C0058A40E10556F95EF85FA3CB86E96574FE13950A1F827B24B9D564 ====


Exact Audio Copy V1.6 from 23. October 2020

EAC extraction logfile from 31. July 2021, 12:02

Charles Medlam, London Baroque / Handel - Aci, Galatea e Polifemo CD2

Used drive : PIONEER DVD-RW DVR-218L Adapter: 1 ID: 0

Read mode : Secure
Utilize accurate stream : Yes
Defeat audio cache : Yes
Make use of C2 pointers : No

Read offset correction : 6
Overread into Lead-In and Lead-Out : No
Fill up missing offset samples with silence : Yes
Delete leading and trailing silent blocks : No
Null samples used in CRC calculations : Yes
Used interface : Native Win32 interface for Win NT & 2000

Used output format : User Defined Encoder
Selected bitrate : 128 kBit/s
Quality : High
Add ID3 tag : No
Command line compressor : C:\Program Files\Exact Audio Copy\Flac\flac.exe
Additional command line options : -V -8 -T "Date=%year%" -T "Genre=%genre%" %source%


TOC of the extracted CD

Track | Start | Length | Start sector | End sector
––––––––––––––––––––––––––––-
1 | 0:00.00 | 3:37.72 | 0 | 16346
2 | 3:37.72 | 1:05.13 | 16347 | 21234
3 | 4:43.10 | 4:10.55 | 21235 | 40039
4 | 8:53.65 | 3:46.35 | 40040 | 57024
5 | 12:40.25 | 3:11.55 | 57025 | 71404
6 | 15:52.05 | 3:08.37 | 71405 | 85541
7 | 19:00.42 | 1:28.35 | 85542 | 92176
8 | 20:29.02 | 7:03.05 | 92177 | 123906
9 | 27:32.07 | 9:58.70 | 123907 | 168826
10 | 37:31.02 | 5:28.70 | 168827 | 193496


Range status and errors

Selected range

Filename C:\ArlegZ\Handel - Aci, Galatea e Polifemo - Charles Medlam CD2.wav

Peak level 95.2 %
Extraction speed 1.7 X
Range quality 99.9 %
Test CRC 94B409B8
Copy CRC 94B409B8
Copy OK

No errors occurred


AccurateRip summary

Track 1 accurately ripped (confidence 4) [F14EC600] (AR v2)
Track 2 accurately ripped (confidence 4) [EF74C25D] (AR v2)
Track 3 accurately ripped (confidence 4) [4FCD704A] (AR v2)
Track 4 accurately ripped (confidence 4) [15298B68] (AR v2)
Track 5 accurately ripped (confidence 4) [6953A37D] (AR v2)
Track 6 accurately ripped (confidence 4) [4BA68EDE] (AR v2)
Track 7 accurately ripped (confidence 4) [38F1ACFC] (AR v2)
Track 8 accurately ripped (confidence 4) [26CEA5B6] (AR v2)
Track 9 accurately ripped (confidence 4) [7EA12CDB] (AR v2)
Track 10 accurately ripped (confidence 4) [174A36CF] (AR v2)

All tracks accurately ripped

End of status report

–– CUETools DB Plugin V2.1.6

[CTDB TOCID: z1K43j1_13_u0cO66yffMIgcVZ4-] found
Submit result: z1K43j1_13_u0cO66yffMIgcVZ4- has been confirmed
Track | CTDB Status
1 | (16/16) Accurately ripped
2 | (16/16) Accurately ripped
3 | (16/16) Accurately ripped
4 | (16/16) Accurately ripped
5 | (16/16) Accurately ripped
6 | (16/16) Accurately ripped
7 | (16/16) Accurately ripped
8 | (16/16) Accurately ripped
9 | (16/16) Accurately ripped
10 | (16/16) Accurately ripped


==== Log checksum 6C7431CE7E77756D262C05280CCE55A2C76C5266FE97368467C4FEA1781F414A ====

Charles Medlam, London Baroque - Handel: Aci, Galatea e Polifemo, 3 Sonates pour flute a bec et basse continue (1998)