Tags
Language
Tags

Charles Mingus - Mingus Ah Um (1959) [Reissue 1998]

Posted By: gribovar
Charles Mingus - Mingus Ah Um (1959) [Reissue 1998]

Charles Mingus - Mingus Ah Um (1959) [Reissue 1998]
EAC Rip | WavPack (image+.cue+log) - 424 MB | Covers - 200 MB
Genre: Jazz | RAR 3% Rec. | Label: Columbia/Legacy (CK 65512)

Charles Mingus' debut for Columbia, Mingus Ah Um is a stunning summation of the bassist's talents and probably the best reference point for beginners. While there's also a strong case for The Black Saint and the Sinner Lady as his best work overall, it lacks Ah Um's immediate accessibility and brilliantly sculpted individual tunes. Mingus' compositions and arrangements were always extremely focused, assimilating individual spontaneity into a firm consistency of mood, and that approach reaches an ultra-tight zenith on Mingus Ah Um. The band includes longtime Mingus stalwarts already well versed in his music, like saxophonists John Handy, Shafi Hadi, and Booker Ervin; trombonists Jimmy Knepper and Willie Dennis; pianist Horace Parlan; and drummer Dannie Richmond. Their razor-sharp performances tie together what may well be Mingus' greatest, most emotionally varied set of compositions. At least three became instant classics, starting with the irrepressible spiritual exuberance of signature tune "Better Get It in Your Soul," taken in a hard-charging 6/8 and punctuated by joyous gospel shouts. "Goodbye Pork Pie Hat" is a slow, graceful elegy for Lester Young, who died not long before the sessions. The sharply contrasting "Fables of Faubus" is a savage mockery of segregationist Arkansas governor Orval Faubus, portrayed musically as a bumbling vaudeville clown (the scathing lyrics, censored by skittish executives, can be heard on Charles Mingus Presents Charles Mingus). The underrated "Boogie Stop Shuffle" is bursting with aggressive swing, and elsewhere there are tributes to Mingus' most revered influences: "Open Letter to Duke" is inspired by Duke Ellington and "Jelly Roll" is an idiosyncratic yet affectionate nod to jazz's first great composer, Jelly Roll Morton. It simply isn't possible to single out one Mingus album as definitive, but Mingus Ah Um comes the closest.
Tracklist:
01. Better Git It In Your Soul
02. Goodbye Pork Pie Hat
03. Boogie Stop Shuffle
04. Self-Portrait In Three Colors
05. Open Letter To Duke
06. Bird Calls
07. Fables Of Faubus
08. Pussy Cat Dues
09. Jelly Roll
10. Pedal Point Blues (Bonus track)
11. Gg Train (Bonus track)
12. Girl Of My Dreams (Bonus track)

Total time: 01:12:33

Exact Audio Copy V1.0 beta 3 from 29. August 2011

EAC extraction logfile from 6. July 2012, 21:53

Charles Mingus / Mingus Ah Um

Used drive : HL-DT-STBDDVDRW GBC-H20N Adapter: 1 ID: 0

Read mode : Secure
Utilize accurate stream : Yes
Defeat audio cache : Yes
Make use of C2 pointers : No

Read offset correction : 667
Overread into Lead-In and Lead-Out : No
Fill up missing offset samples with silence : Yes
Delete leading and trailing silent blocks : No
Null samples used in CRC calculations : Yes
Used interface : Native Win32 interface for Win NT & 2000

Used output format : User Defined Encoder
Selected bitrate : 1024 kBit/s
Quality : High
Add ID3 tag : No
Command line compressor : C:\Program Files\Exact Audio Copy\wavpack.exe
Additional command line options : -hm %source% %dest%


TOC of the extracted CD

Track | Start | Length | Start sector | End sector
––––––––––––––––––––––––––––-
1 | 0:00.00 | 7:23.00 | 0 | 33224
2 | 7:23.00 | 5:44.18 | 33225 | 59042
3 | 13:07.18 | 5:02.50 | 59043 | 81742
4 | 18:09.68 | 3:10.15 | 81743 | 96007
5 | 21:20.08 | 5:51.10 | 96008 | 122342
6 | 27:11.18 | 6:17.52 | 122343 | 150669
7 | 33:28.70 | 8:13.48 | 150670 | 187692
8 | 41:42.43 | 9:14.50 | 187693 | 229292
9 | 50:57.18 | 6:17.07 | 229293 | 257574
10 | 57:14.25 | 6:30.55 | 257575 | 286879
11 | 63:45.05 | 4:39.48 | 286880 | 307852
12 | 68:24.53 | 4:08.55 | 307853 | 326507


Range status and errors

Selected range

Filename C:\Users\ProgDog\Music\Mingus - Ah Um\Charles Mingus - Mingus Ah Um.wav

Peak level 100.0 %
Extraction speed 6.4 X
Range quality 100.0 %
Test CRC 470B331F
Copy CRC 470B331F
Copy OK

No errors occurred


AccurateRip summary

Track 1 accurately ripped (confidence 10) [FF1D438B] (AR v2)
Track 2 accurately ripped (confidence 10) [A0BE08EC] (AR v2)
Track 3 accurately ripped (confidence 10) [BEB7A261] (AR v2)
Track 4 accurately ripped (confidence 10) [818C27AA] (AR v2)
Track 5 accurately ripped (confidence 10) [7ECCD4E2] (AR v2)
Track 6 accurately ripped (confidence 10) [2AB3327A] (AR v2)
Track 7 accurately ripped (confidence 10) [AEEE8F57] (AR v2)
Track 8 accurately ripped (confidence 10) [3D90FCAB] (AR v2)
Track 9 accurately ripped (confidence 10) [557A30A4] (AR v2)
Track 10 accurately ripped (confidence 10) [CCA8912D] (AR v2)
Track 11 accurately ripped (confidence 10) [FED030AC] (AR v2)
Track 12 accurately ripped (confidence 10) [E9BDC982] (AR v2)

All tracks accurately ripped

End of status report

–– CUETools DB Plugin V2.1.3

[CTDB TOCID: 9E8mQWzdYEmvfpL7wJsgT6VecFw-] found, Submit result: 9E8mQWzdYEmvfpL7wJsgT6VecFw- has been confirmed
[b7aa7e33] (163/163) Accurately ripped


==== Log checksum FB5C65DE69F179A0FD0079A1840B50D29529A5CCECDDABA6F1F35B72AF0C7661 ====

[CUETools log; Date: 10.08.2019 1:59:02; Version: 2.1.4]
[CTDB TOCID: 9E8mQWzdYEmvfpL7wJsgT6VecFw-] found.
Track | CTDB Status
1 | (589/591) Accurately ripped
2 | (586/591) Accurately ripped
3 | (587/591) Accurately ripped
4 | (587/591) Accurately ripped
5 | (586/591) Accurately ripped
6 | (588/591) Accurately ripped
7 | (588/591) Accurately ripped
8 | (588/591) Accurately ripped
9 | (586/591) Accurately ripped
10 | (584/591) Accurately ripped
11 | (585/591) Accurately ripped
12 | (580/591) Accurately ripped
[AccurateRip ID: 0020a2d2-01325127-9a11010c] found.
Track [ CRC | V2 ] Status
01 [16f87a9c|ff1d438b] (077+119/482) Accurately ripped
02 [d0304a79|a0be08ec] (079+118/484) Accurately ripped
03 [58f428d7|beb7a261] (081+116/484) Accurately ripped
04 [10ebc975|818c27aa] (081+117/485) Accurately ripped
05 [079d8176|7eccd4e2] (081+117/484) Accurately ripped
06 [b6e104d7|2ab3327a] (081+118/485) Accurately ripped
07 [f2c87044|aeee8f57] (079+117/481) Accurately ripped
08 [e6ebda2a|3d90fcab] (080+117/483) Accurately ripped
09 [d611f78c|557a30a4] (080+118/485) Accurately ripped
10 [3ecf5ab2|cca8912d] (078+116/479) Accurately ripped
11 [09713d60|fed030ac] (080+115/481) Accurately ripped
12 [1edc4a69|e9bdc982] (076+117/476) Accurately ripped
Offsetted by -628:
01 [94e4499e] (019/482) Accurately ripped
02 [7dccdb74] (018/484) Accurately ripped
03 [f2e8af1b] (018/484) Accurately ripped
04 [7356774f] (019/485) Accurately ripped
05 [cd44721a] (019/484) Accurately ripped
06 [d150af80] (019/485) Accurately ripped
07 [d9717633] (018/481) Accurately ripped
08 [be591f3f] (019/483) Accurately ripped
09 [578f4438] (020/485) Accurately ripped
10 [fd85ab97] (020/479) Accurately ripped
11 [fed0164f] (020/481) Accurately ripped
12 [cd6411d5] (019/476) Accurately ripped
Offsetted by -29:
01 [77366cd8] (075/482) Accurately ripped
02 [ffadc1fb] (077/484) Accurately ripped
03 [df99ddfd] (077/484) Accurately ripped
04 [4576e21e] (077/485) Accurately ripped
05 [6211e621] (077/484) Accurately ripped
06 [0ede8580] (077/485) Accurately ripped
07 [33164e55] (077/481) Accurately ripped
08 [0958d36e] (077/483) Accurately ripped
09 [d99bfe95] (077/485) Accurately ripped
10 [bc9fc49d] (076/479) Accurately ripped
11 [a78b0f70] (077/481) Accurately ripped
12 [84e09495] (074/476) Accurately ripped
Offsetted by -664:
01 [693e62b4] (000/482) No match (V2 was not tested)
02 [c82bc174] (000/484) No match (V2 was not tested)
03 [7c98ed87] (000/484) No match (V2 was not tested)
04 [c61d1284] (000/485) No match (V2 was not tested)
05 [5e125a4d] (000/484) No match (V2 was not tested)
06 [64fa7e02] (000/485) No match (V2 was not tested)
07 [83c9cd85] (000/481) No match (V2 was not tested)
08 [e9a229a9] (000/483) No match (V2 was not tested)
09 [0b2b0ee8] (000/485) No match (V2 was not tested)
10 [2825ab60] (000/479) No match (V2 was not tested)
11 [fccb1a6d] (000/481) No match (V2 was not tested)
12 [4dc74acd] (000/476) No match (V2 was not tested)
Offsetted by -30:
01 [eed54b13] (000/482) No match (V2 was not tested)
02 [bb509894] (000/484) No match (V2 was not tested)
03 [f27ade37] (000/484) No match (V2 was not tested)
04 [5b56bb35] (000/485) No match (V2 was not tested)
05 [eca12f0f] (000/484) No match (V2 was not tested)
06 [0abfe612] (000/485) No match (V2 was not tested)
07 [90e6921a] (000/481) No match (V2 was not tested)
08 [4c7df515] (000/483) No match (V2 was not tested)
09 [a34dd95c] (000/485) No match (V2 was not tested)
10 [7c80ba90] (000/479) No match (V2 was not tested)
11 [43b4006e] (000/481) No match (V2 was not tested)
12 [cf31bb25] (000/476) No match (V2 was not tested)

Track Peak [ CRC32 ] [W/O NULL] [ LOG ]
– 100,0 [470B331F] [D25F62D5] CRC32
01 100,0 [998675D7] [158FDAD5]
02 100,0 [F4D2EA50] [C461C6AF]
03 100,0 [4BE8140C] [E9883CBB]
04 100,0 [265B3ED1] [9B98E4AF]
05 95,7 [EFCCEBF1] [A901589D]
06 100,0 [6CC6CE43] [F31D45D1]
07 100,0 [0740C369] [42991DB8]
08 95,8 [4758AACC] [74B6CE9D]
09 80,5 [D4FE7652] [B1A3A396]
10 84,7 [DE81AEEE] [43A2592F]
11 94,5 [59C2D187] [7CDE9426]
12 63,2 [2F5C5239] [092DAC11]

Thanks to arizonadream