Subcategories
Tags
Language
Tags

Charley Musselwhite Blues Band - Stone Blues (1968) [Reissue 2005]

Posted By: gribovar
Charley Musselwhite Blues Band - Stone Blues (1968) [Reissue 2005]

Charley Musselwhite Blues Band - Stone Blues (1968) [Reissue 2005]
EAC Rip | FLAC (image+.cue+log) - 235 MB | MP3 CBR 320 kbps (LAME 3.93) - 95 MB | Covers - 23 MB
Genre: Blues | RAR 3% Rec. | Label: Vanguard Records/Ace Records (VMD 79287)

When people think of top white blues performers from the 60's, names like Paul Butterfield, Mike Bloomfield, John Mayall and Al Kooper come readily to mind. While those guys all have their place in history, so does Charlie Musselwhite. Musselwhite learned the blues straight from old timers like Homesick James and Robert Nighthawk on Maxwell Street in the Windy City. This release, "Stone Blues" is his second solo release on Vanguard Records and while it contains no Musselwhite originals, the ten songs covered here, songs of Walter Jacob, Elmore James and Clay Cotton, provide ample opportunity to hear and enjoy the warm vocals and exemplary harp playing of Musselwhite.
Tracklist:
01. My Buddy Buddy Friends
02. Everything's Gonna be Allright
03. My Baby's Sweeter
04. Clay's Tune
05. Gone and Left Me
06. Cry for Me Baby
07. Hey Baby
08. Juke
09. She Belongs to Me
10. Bag Gloom Brews

Total time: 40:36

Exact Audio Copy V0.99 prebeta 4 from 23. January 2008

EAC extraction logfile from 3. November 2009, 21:49

Charley Musselwhite Blues Band / Stone Blues

Used drive : PLEXTOR CD-R PX-230A Adapter: 1 ID: 1

Read mode : Secure
Utilize accurate stream : Yes
Defeat audio cache : Yes
Make use of C2 pointers : No

Read offset correction : 738
Overread into Lead-In and Lead-Out : No
Fill up missing offset samples with silence : Yes
Delete leading and trailing silent blocks : No
Null samples used in CRC calculations : Yes
Used interface : Installed external ASPI interface

Used output format : User Defined Encoder
Selected bitrate : 1024 kBit/s
Quality : High
Add ID3 tag : No
Command line compressor : C:\Program Files\Exact Audio Copy\FLAC\FLAC.EXE
Additional command line options : -6 -V -T "ARTIST=%a" -T "TITLE=%t" -T "ALBUM=%g" -T "DATE=%y" -T "TRACKNUMBER=%n" -T "GENRE=%m" -T "COMMENT=%e" %s -o %d


TOC of the extracted CD

Track | Start | Length | Start sector | End sector
––––––––––––––––––––––––––––-
1 | 0:00.00 | 1:54.68 | 0 | 8617
2 | 1:54.68 | 2:37.02 | 8618 | 20394
3 | 4:31.70 | 4:21.00 | 20395 | 39969
4 | 8:52.70 | 5:12.05 | 39970 | 63374
5 | 14:05.00 | 3:42.70 | 63375 | 80094
6 | 17:47.70 | 2:32.03 | 80095 | 91497
7 | 20:19.73 | 4:28.72 | 91498 | 111669
8 | 24:48.70 | 2:19.73 | 111670 | 122167
9 | 27:08.68 | 2:35.02 | 122168 | 133794
10 | 29:43.70 | 10:52.17 | 133795 | 182711


Range status and errors

Selected range

Filename J:\Rips\Charley Musselwhite Blues Band - Stone Blues.wav

Peak level 97.5 %
Range quality 100.0 %
Test CRC B2A96F42
Copy CRC B2A96F42
Copy OK

No errors occurred


AccurateRip summary

Track 1 not present in database
Track 2 not present in database
Track 3 not present in database
Track 4 not present in database
Track 5 not present in database
Track 6 not present in database
Track 7 not present in database
Track 8 not present in database
Track 9 not present in database
Track 10 not present in database

None of the tracks are present in the AccurateRip database

End of status report

[CUETools log; Date: 22.07.2021 12:17:54; Version: 2.1.4]
[CTDB TOCID: r2jyxe0WmzCXB6MrQRKZCk2MhCE-] disk not present in database.
[AccurateRip ID: 000d0918-006b11b7-7809840a] found.
Track [ CRC | V2 ] Status
01 [a1fd79a9|fb25fc44] (1+0/1) Accurately ripped
02 [50601104|722e9acc] (1+0/1) Accurately ripped
03 [fe09152b|53c67119] (1+0/1) Accurately ripped
04 [616a4baf|e1665d86] (1+0/1) Accurately ripped
05 [bcfd23d7|a4bdac24] (1+0/1) Accurately ripped
06 [c79aa099|dd357a94] (1+0/1) Accurately ripped
07 [cf9ac0ee|9cf335fe] (1+0/1) Accurately ripped
08 [f5e33c2b|cb85c267] (1+0/1) Accurately ripped
09 [e0879b72|9b4679fb] (1+0/1) Accurately ripped
10 [c1692c63|e2f2260d] (1+0/1) Accurately ripped

Track Peak [ CRC32 ] [W/O NULL] [ LOG ]
– 97,5 [B2A96F42] [38725982] CRC32
01 97,5 [14A5BE33] [E1C2439B]
02 78,5 [DAF65E53] [2DDA4AA1]
03 71,0 [A7CC8A95] [1DBC8329]
04 74,6 [EA040969] [EACE2B53]
05 88,9 [2607C702] [15E0D7D1]
06 96,1 [E39D30C3] [ED415BBE]
07 78,5 [389278D2] [3CC25AE3]
08 82,5 [73068E25] [07E1324B]
09 71,0 [78385B5B] [63A99413]
10 82,5 [400FB9E6] [1FDCDA2F]

Thanks to рмх222

See also:
Charlie Musselwhite - Ace Of Harps (1990)