Subcategories

Charlie Mariano & Chris Hinze - Blue Stone (1973) [Reissue 1995]

Posted By: gribovar
Charlie Mariano & Chris Hinze - Blue Stone (1973) [Reissue 1995]

Charlie Mariano & Chris Hinze - Blue Stone (1973) [Reissue 1995]
EAC Rip | APE (image+.cue+log) - 274 MB | MP3 CBR 320 kbps (LAME 3.93) - 140 MB | Covers (12 MB) included
Genre: Jazz | RAR 3% Rec. | Label: Black Lion (BLCD760203)

Charlie Mariano, who initially gained fame playing bop and cool jazz in the 1950s, was exploring a mixture of world music and funk/R&B by the early '70s. This interesting outing finds Mariano switching between alto, soprano, flute, and the nagasuram in a quintet with flutist Chris Hinze and a European rhythm section that explores three Mariano originals (including the previously unreleased 18½-minute "Blue Stone"), a piece by Hinze, and a traditional South Indian folk song. The moody music contains plenty of intriguing colors and some surprising moments.
Tracklist:
01. Lullaby for Dewi
02. Mirror of Your Mind
03. Blue Stone
04. Traditional South Indian (Carnatic) / Kirtanam (Ragam Mandari)
05. Lassana Lamaya (Beautiful Child)

Total time: 54:15

Exact Audio Copy V1.0 beta 1 from 15. November 2010

EAC extraction logfile from 28. October 2011, 22:16

Charlie Mariano, Chris Hinze / Blue Stone

Used drive : TSSTcorpDVD+-RW TS-L532B Adapter: 1 ID: 0

Read mode : Secure
Utilize accurate stream : Yes
Defeat audio cache : Yes
Make use of C2 pointers : No

Read offset correction : 704
Overread into Lead-In and Lead-Out : No
Fill up missing offset samples with silence : Yes
Delete leading and trailing silent blocks : No
Null samples used in CRC calculations : Yes
Used interface : Native Win32 interface for Win NT & 2000

Used output format : Internal WAV Routines
Sample format : 44.100 Hz; 16 Bit; Stereo


TOC of the extracted CD

Track | Start | Length | Start sector | End sector
––––––––––––––––––––––––––––-
1 | 0:00.30 | 9:51.10 | 30 | 44364
2 | 9:51.40 | 7:38.69 | 44365 | 78783
3 | 17:30.34 | 18:29.74 | 78784 | 162032
4 | 36:00.33 | 6:37.00 | 162033 | 191807
5 | 42:37.33 | 11:37.37 | 191808 | 244119


Range status and errors

Selected range

Filename C:\Documents and Settings\VB\My Documents\BARIN99\Charlie Mariano, Chris Hinze - Blue Stone\Charlie Mariano, Chris Hinze - Blue Stone.wav

Peak level 95.0 %
Extraction speed 0.5 X
Range quality 99.9 %
Copy CRC 5B699D45
Copy OK

No errors occurred


AccurateRip summary

Track 1 not present in database
Track 2 not present in database
Track 3 not present in database
Track 4 not present in database
Track 5 not present in database

None of the tracks are present in the AccurateRip database

End of status report

[CUETools log; Date: 11.11.2018 2:51:23; Version: 2.1.4]
Pregap length 00:00:30.
[CTDB TOCID: Cqz_2hyF1lPpWOwVrW5Z5ESfV18-] found.
Track | CTDB Status
1 | (3/3) Accurately ripped
2 | (3/3) Accurately ripped
3 | (3/3) Accurately ripped
4 | (3/3) Accurately ripped
5 | (3/3) Accurately ripped
[AccurateRip ID: 000b00f4-0033d58c-3b0cb605] found.
Track [ CRC | V2 ] Status
01 [cb43daef|b7da2d13] (0+2/2) Accurately ripped
02 [c6009d82|565524b6] (0+2/2) Accurately ripped
03 [434fb1c9|9f52a198] (0+2/2) Accurately ripped
04 [2e1e49d1|652a22b2] (0+2/2) Accurately ripped
05 [31cb6063|e0410fb5] (0+2/2) Accurately ripped

Track Peak [ CRC32 ] [W/O NULL] [ LOG ]
– 95,0 [5B699D45] [FAC428C1] CRC32
01 87,7 [B72DC6C6] [808E968D]
02 87,4 [869D2EBA] [664562D5]
03 88,1 [54A521C2] [C1FB9AFF]
04 95,0 [89ABC9D7] [BD8869F2]
05 94,2 [C446E2A5] [CD450262]

Thanks to barin99

See also:
Charlie Mariano - Boston All Stars [Recorded 1951-53] (1990)