Subcategories

Chris Farlowe - Hungary For The Blues (2000) REPOST

Posted By: uff
Chris Farlowe - Hungary For The Blues (2000) REPOST

Chris Farlowe - Hungary For The Blues (2000)
rock | 1cd | Eac Rip | Flac + Cue + Log | covers
SPV 99942 CD | 550mb

Still possessed of one of the crunchiest growls in rock, Chris Farlowe divides his time these days between the sporadically re-formed Colosseum and a solo career that just won't quit. Hungary for the Blues spotlights the latter, a live set recorded at the Gastroblues Festival Parks in Hungary (hence the awful pun of the CD title) back in 2000, and it's as powerful a representation of his live show as you could hope for. Spinning back and forth throughout his career, the repertoire hits all the high spots. "Out of Time," "Handbags and Gladrags," and a terrific take on the Small Faces' "All or Nothing" spin him back to the days when he was a bona fide pop star; a clutch of bluesier numbers (a deliciously protracted "Stormy Monday," "This Guitar Don't Lie," "Lonesome Road") exemplify the music that he's always loved the best; and Randy Newman's "I Think It's Gonna Rain Today" and Glenn Frey's "Who's Been Sleeping in My Bed" remind listeners just what a great ear for a song Farlowe's always had. It's a terrific-sounding disc, all the more so if you can listen to it just a few decibels below the pain threshold. Farlowe's vinyl recordings have always lacked a certain something; they have never truly captured the might and magic that goes into his performance. Hungary for the Blues, on the other hand, smells of hard-rocking sweat before you ever open the jewel case.

Tracks:
1. "I Don't Want to Sing the Blues no More" (Chris Farlowe) -4:03
2. "Lonesome Road" (Roy Herrington) -6:26
3. "Stormy Monday" (T-Bone Walker) -8:09
4. "All or Nothing (Steve Marriott/Ronnie Lane) -3:43
5. "Tough on Me, Tough on You" (Hoy Lindsey/Lonnie Mack) -6:33
6. "Shaky Ground (Jeffrey Bowen/Al Boyd/Eddie Hazel) -6:45
7. "The Guitar Don't Lie" (Tony Joe White) -7:26
8. "I Thing It's Gonna Rain Today" (Randy Newman) -1:47
9. "Easy as That" (Rickie Byrd) -5:16
10. "Out of Time" (Mick Jagger/Keith Richards) -4:39
11. "Who's Been Sleeping in my Bed" (Glenn Frey) -3:40
12. "Miss You Fever" (Dennis Morgan/Feargal Sharkey) -6:39
* Tracks 1-12 recorded at Gastroblues Festival Paks (June 18, 2000)
13. "Handbags and Gladrags" (Mike D'Abo) -6:46
14. "Rock N' Roll Soldier" (Troy Seal) -7:00
* Tracks 13-14 recorded at Charlys Musikkneipe (October 8, 2004)

Personnel:
* Chris Farlowe: Vocals.
* Norman Beaker: Guitars, backing vocals.
* John Price: Bass guitar, backing vocals.
* Andy Kingslow: Keyboards, organ, piano (2004)
* Dave Baldwin: Keyboards, organ, piano.
* Paul Burgess: Drums, percussion.* Damian Hand: Saxophones (2004).
* Lenni: Saxophones (2000).

EAC extraction logfile from 14. December 2008, 8:25 for CD
Farlowe, Chris / Hungary For The Blues

Used drive : Optiarc DVD RW AD-7170A Adapter: 0 ID: 1
Read mode : Secure with NO C2, accurate stream, disable cache
Read offset correction : 48
Overread into Lead-In and Lead-Out : No

Used output format : Internal WAV Routines
44.100 Hz; 16 Bit; Stereo

Other options :
Fill up missing offset samples with silence : Yes
Delete leading and trailing silent blocks : No
Native Win32 interface for Win NT & 2000


Range status and errors
Selected range
Filename D:\Ěóç đŕçäŕ÷ŕ 5\Íîâŕ˙ ďŕďęŕ\Farlowe, Chris - Hungary For The Blues.wav

Peak level 92.8 %
Range quality 99.9 %
CRC 0DDBF885
Ęîďčđîâŕíčĺ… ÎĘ

No errors occured

End of status report



[CUETools log; Date: 2013.01.16. 15:51:30; Version: 2.1.4]
[CTDB TOCID: 5vUBB2_vvNg_0NTPlT8alvWCsS8-] found.
Track | CTDB Status
1 | (1/1) Accurately ripped
2 | (1/1) Differs in 13 samples @00:02:26
3 | (1/1) Differs in 20 samples @06:49:01,06:49:28-06:49:29,06:49:42
4 | (1/1) Accurately ripped
5 | (1/1) Accurately ripped
6 | (1/1) Accurately ripped
7 | (1/1) Accurately ripped
8 | (1/1) Accurately ripped
9 | (1/1) Accurately ripped
10 | (1/1) Accurately ripped
11 | (1/1) Accurately ripped
12 | (1/1) Accurately ripped
13 | (1/1) Accurately ripped
14 | (1/1) Accurately ripped
[AccurateRip ID: 00286310-01ad0491-b612810e] found.
Track [ CRC | V2 ] Status
01 [b9cddf7c|9b6b9aed] (00+00/12) No match
02 [592a185a|2fc6dc52] (00+00/12) No match
03 [54949f94|1e7cbb0c] (00+00/11) No match
04 [6d57b428|d793c3e1] (00+00/11) No match
05 [17a04795|56cce2a5] (00+00/11) No match
06 [bb6f1d4a|ffec0aa1] (00+00/11) No match
07 [2c97f891|3dbcdf99] (00+00/11) No match
08 [43fb4a64|1f823063] (00+00/11) No match
09 [9133ae1f|c4b37b7c] (00+00/11) No match
10 [4b4a9870|61467109] (00+00/11) No match
11 [517dbad1|7ba6c721] (00+00/11) No match
12 [608015c3|9cfb26d8] (00+00/11) No match
13 [e34cf45f|47442054] (00+00/11) No match
14 [89d81e11|99c3a73e] (00+00/11) No match
Offsetted by 66:
01 [6b1abe50] (04/12) Accurately ripped
02 [010bf050] (00/12) No match (V2 was not tested)
03 [33c73d1f] (00/11) No match (V2 was not tested)
04 [95338079] (04/11) Accurately ripped
05 [9c773a61] (04/11) Accurately ripped
06 [b611ed25] (04/11) Accurately ripped
07 [3fa5bad3] (04/11) Accurately ripped
08 [642f62fa] (04/11) Accurately ripped
09 [47611995] (04/11) Accurately ripped
10 [ab0901bd] (04/11) Accurately ripped
11 [ed2a3336] (04/11) Accurately ripped
12 [c4ac9778] (04/11) Accurately ripped
13 [f62892c7] (04/11) Accurately ripped
14 [8d37c3ad] (04/11) Accurately ripped
Offsetted by 730:
01 [d6f28755] (04/12) Accurately ripped
02 [76f59624] (00/12) No match (V2 was not tested)
03 [5ff47118] (00/11) No match (V2 was not tested)
04 [69def526] (03/11) Accurately ripped
05 [2358f6ab] (03/11) Accurately ripped
06 [8c8d135f] (03/11) Accurately ripped
07 [24f4fe50] (03/11) Accurately ripped
08 [f7216f88] (03/11) Accurately ripped
09 [3cc2bc65] (03/11) Accurately ripped
10 [d5387975] (03/11) Accurately ripped
11 [c61b8bd8] (03/11) Accurately ripped
12 [d8995730] (03/11) Accurately ripped
13 [8d17a5a7] (03/11) Accurately ripped
14 [78dafffd] (03/11) Accurately ripped
Offsetted by 810:
01 [1f80d229] (04/12) Accurately ripped
02 [56178453] (00/12) No match (V2 was not tested)
03 [319a0be5] (00/11) No match (V2 was not tested)
04 [32bac09c] (04/11) Accurately ripped
05 [45f6a183] (04/11) Accurately ripped
06 [978042d0] (04/11) Accurately ripped
07 [e60428f6] (04/11) Accurately ripped
08 [32361858] (04/11) Accurately ripped
09 [ad2bb387] (04/11) Accurately ripped
10 [a8a5bf98] (04/11) Accurately ripped
11 [87fae79d] (04/11) Accurately ripped
12 [741e383d] (04/11) Accurately ripped
13 [9c315de7] (04/11) Accurately ripped
14 [3ee2545d] (04/11) Accurately ripped

Track Peak [ CRC32 ] [W/O NULL]
– 92,8 [0DDBF885] [E4F22217]
01 84,2 [12E046F8] [47B333A9]
02 84,5 [DC1F7204] [5CB571ED]
03 85,4 [1230106C] [1D052668]
04 84,9 [9D23C149] [992527D6]
05 84,9 [F7E2E847] [C04C3B88]
06 84,8 [35EF3CB2] [A73C418C]
07 87,4 [C172F3CE] [619004FA]
08 70,6 [A399CD41] [70812300]
09 86,7 [24F2BCD1] [FA4BFBB8]
10 85,3 [BAD6F36D] [80375E05]
11 87,6 [B82FFC27] [CFFDCC90]
12 89,6 [CFFF8B7D] [3CE1667E]
13 91,5 [1D057B0D] [CF855D9C]
14 92,8 [656A22D0] [8F150EAD]



Thx to the original uploader

More Chris Farlowe on my blog