Subcategories

Circus Maximus - Isolate (2007)

Posted By: Andi_Deris
Circus Maximus - Isolate (2007)

Circus Maximus - Isolate (2007)
EAC Rip | FLAC: Image+Cue+Log | MP3 CBR 320 kbps | Scans
413 Mb | 128 Mb | 58 Mb | Time: 54:39
Frontiers Records | FR CD 345
Progressive Metal

After their debut "The 1st Chapters" was met with a lot of positive criticism throughout the prog-metal world, Circus Maximus presented their sophomore effort, "Isolate". Circus Maximus seem to have perfected the melodic progressive metal style, with just the right mix of guitars, drums, bass, and keyboards. Add to that the outstanding vocal talent of Mr. Eriksen. The album "Isolate" is a concept album, described by the band as a journey through a man’s mind, where the listener follows the central character’s life story.

Circus Maximus - Isolate (2007)




Track Listing

01. A Darkened Mind (5:33)
02. Abyss (5:00)
03. Wither (4:46)
04. Sane No More (instrumental) (3:54)
05. Arrival Of Love (4:10)
06. Zero (4:49)
07. Mouth Of Madness (12:42)
08. From Childhood's Hour (4:28)
09. Ultimate Sacrifice (9:17)

Produced by Circus Maximus

The Band

• Michael Eriksen: Vocals
• Mats Haugen: Guitars, Backing Vocals
• Lasse Finbråten: Keyboards, Samples & Backing Vocals
• Glen Møllen: Bass & Backing Vocals
• Truls Haugen: Drums, Percussion & Backing Vocals

*****
• Additional backing vocals by Jan Erik Salvesen

Exact Audio Copy V0.99 prebeta 5 from 4. May 2009

EAC extraction logfile from 19. October 2010, 8:52

Circus Maximus / Isolate

Used drive : _NEC DVD_RW ND-3540A Adapter: 0 ID: 0

Read mode : Secure
Utilize accurate stream : Yes
Defeat audio cache : Yes
Make use of C2 pointers : No

Read offset correction : 48
Overread into Lead-In and Lead-Out : No
Fill up missing offset samples with silence : Yes
Delete leading and trailing silent blocks : No
Null samples used in CRC calculations : Yes
Used interface : Native Win32 interface for Win NT & 2000

Used output format : User Defined Encoder
Selected bitrate : 40 kBit/s
Quality : High
Add ID3 tag : No
Command line compressor : C:\Program Files\Exact Audio Copy\FLAC.EXE
Additional command line options : -6 -V %s


TOC of the extracted CD

Track | Start | Length | Start sector | End sector
––––––––––––––––––––––––––––-
1 | 0:00.00 | 5:33.35 | 0 | 25009
2 | 5:33.35 | 5:00.02 | 25010 | 47511
3 | 10:33.37 | 4:46.20 | 47512 | 68981
4 | 15:19.57 | 3:54.44 | 68982 | 86575
5 | 19:14.26 | 4:10.12 | 86576 | 105337
6 | 23:24.38 | 4:49.39 | 105338 | 127051
7 | 28:14.02 | 12:42.08 | 127052 | 184209
8 | 40:56.10 | 4:28.31 | 184210 | 204340
9 | 45:24.41 | 9:17.29 | 204341 | 246144


Range status and errors

Selected range

Filename E:\CIRCUS MAXIMUS [2007] [CD] Isolate [EAC-FLAC] by snecy\Circus Maximus - Isolate.wav

Peak level 100.0 %
Range quality 100.0 %
Copy CRC 4B7CCB29
Copy OK

No errors occurred


AccurateRip summary

Track 1 accurately ripped (confidence 16) [A912290F]
Track 2 accurately ripped (confidence 17) [635F5C88]
Track 3 accurately ripped (confidence 17) [6E6C34C4]
Track 4 accurately ripped (confidence 17) [E8088755]
Track 5 accurately ripped (confidence 17) [5673738D]
Track 6 accurately ripped (confidence 17) [1A6DD777]
Track 7 accurately ripped (confidence 17) [51DB56D2]
Track 8 accurately ripped (confidence 17) [82629308]
Track 9 accurately ripped (confidence 18) [5156F42B]

All tracks accurately ripped

End of status report


Many thanks to the original uploader: snecy

SEE also:
Circus Maximus 2005 The 1st Chapter



Password: pass