Tags
Language
Tags

Clara Andrada, Jaime Martín, Frankfurt Radio Symphony - Nielsen, Ibert, Arnold: Flute Concertos (2020)

Posted By: ArlegZ
Clara Andrada, Jaime Martín, Frankfurt Radio Symphony - Nielsen, Ibert, Arnold: Flute Concertos (2020)

Clara Andrada, Jaime Martín, Frankfurt Radio Symphony - Nielsen, Ibert, Arnold: Flute Concertos (2020)
EAC | FLAC | Image (Cue & Log) ~ 229 Mb | Total time: 51:54 | Scans included
Classical | Label: Ondine | # ODE 1340-2 | Recorded: 2015, 2018

​In this album Clara Andrada, solo flutist of the Frankfurt Radio Symphony, performs three 20th century flute concertos together with the orchestra conducted by Jaime Martín. Malcolm Arnolds delightful Flute Concerto No. 1 makes a pleasant addition alongside Nielsens and Iberts flute concertos. Jaime Martín, himself an excellent flutist, is a perfect companion to these works. This is the orchestras second album for Ondine, and continues the fruitful collaboration between Jaime Martín and Ondine that has already produced three albums previously. Clara Andrada de la Calleis one of the leading Flute players of her generation currently holding Solo Flute positions of both the Chamber Orchestra of Europe and the Frankfurt Radio Symphony Orchestra. Born in Salamanca, she commenced her musical studies with Pablo Sagredo and Magdalena Martínez at the Syrinx School of Music. Scholarships from the Spanish Ministry of Culture and the London Wall Trust Foundation enabled her to continue her studies at the Geneva Conservatory of Music under Prof. Emmanuel Pahud and Prof. J.D. Castellon as well as the London Royal College of Music under the guidance of Jaime Martín. As a Principal Flute player, she has worked with many leading orchestras, including the London Symphony Orchestra, London Philharmonic, Swedish Radio, Rotterdam Philharmonic, and NDR Elbphilharmonie Orchestra under esteemed conductors including Nikolaus Harnoncourt, Valery Gergiev, Colin Davis, Bernard Haitink, Vladimir Ashkenazy, Myung-whun Chung, and Lorin Maazel.

Performer:
Clara Andrada, flute & lieder (6-8)
Frankfurt Radio Symphony
Jaime Martín, conductor (1-5)

Track List:
Carl Nielsen (1865–1931)
Flute Concerto, FS 119 (1926)
01. I. Allegro moderato [Explicit]
02. II. Allegretto un poco - Adagio ma non troppo
Jacques Ibert (1890–1962)
Flute Concerto (1932–33)
03. I. Allegro
04. II. Andante
05. III. Allegro scherzando
Malcolm Arnold (1921–2006)
Flute Concerto No. 1, Op. 45 (1954)
06. I. Allegro
07. II. Andante
08. III. Con fuoco


Exact Audio Copy V1.3 from 2. September 2016

EAC extraction logfile from 15. May 2020, 22:45

Clara Andrada, Frankfurt Radio Symphony, Jaime Martín / Nielsen, Ibert, Arnold - Flute Concertos

Used drive : ASUS SDRW-08U7M-U Adapter: 1 ID: 0

Read mode : Secure
Utilize accurate stream : Yes
Defeat audio cache : Yes
Make use of C2 pointers : No

Read offset correction : 6
Overread into Lead-In and Lead-Out : No
Fill up missing offset samples with silence : Yes
Delete leading and trailing silent blocks : No
Null samples used in CRC calculations : Yes
Used interface : Native Win32 interface for Win NT & 2000

Used output format : User Defined Encoder
Selected bitrate : 128 kBit/s
Quality : High
Add ID3 tag : No
Command line compressor : C:\Program Files (x86)\Exact Audio Copy\Flac\flac.exe
Additional command line options : -V -8 -T "Date=%year%" -T "Genre=%genre%" %source%


TOC of the extracted CD

Track | Start | Length | Start sector | End sector
––––––––––––––––––––––––––––-
1 | 0:00.00 | 11:46.52 | 0 | 53001
2 | 11:46.52 | 7:37.13 | 53002 | 87289
3 | 19:23.65 | 4:57.56 | 87290 | 109620
4 | 24:21.46 | 7:18.30 | 109621 | 142500
5 | 31:40.01 | 8:10.61 | 142501 | 179311
6 | 39:50.62 | 4:35.48 | 179312 | 199984
7 | 44:26.35 | 5:26.03 | 199985 | 224437
8 | 49:52.38 | 1:59.71 | 224438 | 233433


Range status and errors

Selected range

Filename C:\temp\Nielsen, Ibert, Arnold - Flute Concertos - Andrada - 2020\Nielsen, Ibert, Arnold - Flute Concertos.wav

Peak level 97.2 %
Extraction speed 1.9 X
Range quality 100.0 %
Test CRC 65F1B13B
Copy CRC 65F1B13B
Copy OK

No errors occurred


AccurateRip summary

Track 1 accurately ripped (confidence 1) [CE39B0B2] (AR v2)
Track 2 accurately ripped (confidence 1) [62BF92BE] (AR v2)
Track 3 accurately ripped (confidence 1) [C0EF8162] (AR v2)
Track 4 accurately ripped (confidence 1) [6DDB2E84] (AR v2)
Track 5 accurately ripped (confidence 1) [1865383E] (AR v2)
Track 6 accurately ripped (confidence 1) [A73692DF] (AR v2)
Track 7 accurately ripped (confidence 1) [E0B943A6] (AR v2)
Track 8 accurately ripped (confidence 1) [CF3849D6] (AR v2)

All tracks accurately ripped

End of status report

==== Log checksum C1AB8FCFD42D499AB3D898DAB523C115E30A110A7373C06F26C56F6FD0BC1A48 ====

Clara Andrada, Jaime Martín, Frankfurt Radio Symphony - Nielsen, Ibert, Arnold: Flute Concertos (2020)

Thanks to the original releaser