Tags
Language
Tags

Claudio Cavina, La Venexiana - Monteverdi: L'Orfeo (2007)

Posted By: ArlegZ
Claudio Cavina, La Venexiana - Monteverdi: L'Orfeo (2007)

Claudio Cavina, La Venexiana - Monteverdi: L'Orfeo (2007)
EAC | FLAC | Image (Cue & Log) ~ 622 Mb | Total time: 52:34+62:18 | Scans included
Classical | Label: Glossa | # GES 920913-E | Recorded: 2006

As part of their comprehensive survey of the music of Claudio Monteverdi, Claudio Cavina and La Venexiana delivered an exceptional version of L’Orfeo, a reading which had been honed by their trailblazing interpretations of the composer’s madrigals. This highly-esteemed recording of the favola in musica – critics applauded and fêted it in many different countries – subsequently dropped out of the catalogue and Glossa is very pleased to have the opportunity to return it there as part of this year’s 450th anniversary commemorations of the composer’s birth.
The seductive power of Claudio Cavina’s interpretation lay, in part, in his choice of orchestral colours but also in his shaping of the mythical story of the shared love of Orfeo and Euridice, the latter’s death and descent into the Underworld, and the former’s efforts to rescue from there. Into that reading Mirko Guadagnini excelled with nobleness in the title role, and Emanuela Galli brought sensuality to that of Euridice (and fervour to her Musica), whilst other key roles were taken by Salvo Vitale, Marina De Liso and Josè Maria Lo Monaco. In keeping with his habits of the time Claudio Cavina also found a small part for he himself to sing – the third Shepherd in this case – a reminder not just of his own talents and legacy on record as a singer but of La Venexiana’s tight-knit ensemble approach also.
Claudio Cavina’s L’Orfeo has lost nothing of its grandeur in the passing of the years and is recommendable today as when it was first issued in 2006.

Performer:
Emanuela Galli: La Musica / Euridice
Mirko Guadagnini: Orfeo
Marina De Liso: Messaggiera
Cristina Calzolari: Proserpina
Matteo Bellotto: Plutone
Josè Maria Lo Monaco: Speranza
Salvo Vitale: Caronte
Vincenzo Di Donato: Apollo
Francesca Cassinari: Ninfa
Giovanni Caccamo: Pastore I
Makoto Sakurada: Pastore II - Spirito I
Claudio Cavina: Pastore III
Tony Corradini: Pastore IV - Spirito II
La Venexiana
Claudio Cavina, director

Track List:
CD1:
01. Toccata
Prologo
02. Dal mio Permesso amato
Atto Primo
03. In questo lieto e fortunato giorno
04. Vieni Imeneo
05. Muse, honor di Parnaso
06. Lasciate i monti
07. Rosa del ciel
08. Io non dirò qual sia
09. Lasciate i monti
10. Vieni Imeneo
Atto Secondo
11. Ecco pur ch’a voi ritorno
12. Ahi caso acerbo
13. In un fiorito prato
14. Tu se’ morta
15. Ahi caso acerbo
16. Ma io, ch’in questa lingua
17. Chi ne consola, ahi lassi?
18. Ritornello
CD2:
Atto Terzo
01. Sinfonia
02. Scorto da te, mio nume
03. Ecco l’atra palude
04. O tu, ch’innanzi mort’a queste rive
05. Sinfonia
06. Possente spirto e formidabil nume
07. Sol tu, nobile dio
08. Ben mi lusinga alquanto
09. Sinfonia
10. Ei dorme, e la mia cetra
11. Sinfonia
12. Nulla impresa per uom si tenta
Atto Quarto
13. Signor, quell’infelice
14. Benché severo ed immutabil fato
15. Pietade oggi ed amore
16. Qual onor di te fia degno
17. Ahi, vista troppo dolce e troppo amara
18. Dove te n’vai, mia vita?
19. Sinfonia
20. È la virtute un raggio
Atto Quinto
21. Questi i campi di Traccia
22. Sinfonia
23. Perch’a lo sdegno ed al dolor
24. Saliam cantand’al Cielo
25. Vanne Orfeo felice a pieno
26. Moresca


Exact Audio Copy V1.3 from 2. September 2016

EAC extraction logfile from 13. October 2018, 13:38

Claudio Cavina, La Venexiana / Monteverdi - L'Orfeo CD1

Used drive : HL-DT-STDVDRAM GH24NS95 Adapter: 1 ID: 0

Read mode : Secure
Utilize accurate stream : Yes
Defeat audio cache : Yes
Make use of C2 pointers : No

Read offset correction : 6
Overread into Lead-In and Lead-Out : No
Fill up missing offset samples with silence : Yes
Delete leading and trailing silent blocks : No
Null samples used in CRC calculations : Yes
Used interface : Native Win32 interface for Win NT & 2000

Used output format : User Defined Encoder
Selected bitrate : 128 kBit/s
Quality : High
Add ID3 tag : No
Command line compressor : C:\Program Files\Exact Audio Copy\Flac\flac.exe
Additional command line options : -V -8 -T "Date=%year%" -T "Genre=%genre%" %source%


TOC of the extracted CD

Track | Start | Length | Start sector | End sector
––––––––––––––––––––––––––––-
1 | 0:00.00 | 1:50.19 | 0 | 8268
2 | 1:50.19 | 7:07.43 | 8269 | 40336
3 | 8:57.62 | 1:31.54 | 40337 | 47215
4 | 10:29.41 | 0:55.17 | 47216 | 51357
5 | 11:24.58 | 0:57.63 | 51358 | 55695
6 | 12:22.46 | 2:39.36 | 55696 | 67656
7 | 15:02.07 | 2:40.12 | 67657 | 79668
8 | 17:42.19 | 0:59.18 | 79669 | 84111
9 | 18:41.37 | 0:57.72 | 84112 | 88458
10 | 19:39.34 | 6:17.48 | 88459 | 116781
11 | 25:57.07 | 6:34.56 | 116782 | 146387
12 | 32:31.63 | 3:13.70 | 146388 | 160932
13 | 35:45.58 | 3:55.20 | 160933 | 178577
14 | 39:41.03 | 2:41.36 | 178578 | 190688
15 | 42:22.39 | 1:13.69 | 190689 | 196232
16 | 43:36.33 | 2:55.23 | 196233 | 209380
17 | 46:31.56 | 5:12.02 | 209381 | 232782
18 | 51:43.58 | 0:50.57 | 232783 | 236589


Range status and errors

Selected range

Filename C:\Program Files\Exact Audio Copy\Flac\Monteverdi - L'Orfeo CD1.wav

Peak level 100.0 %
Extraction speed 7.5 X
Range quality 100.0 %
Test CRC 342DFCEB
Copy CRC 342DFCEB
Copy OK

No errors occurred

End of status report

==== Log checksum 5137989E54A1E7AF91F8CF20D4DF4D6D4FC3CF1EBCAE342DE3106599B7FA6A5F ====


Exact Audio Copy V1.3 from 2. September 2016

EAC extraction logfile from 13. October 2018, 14:09

Claudio Cavina, La Venexiana / Monteverdi - L'Orfeo CD2

Used drive : HL-DT-STDVDRAM GH24NS95 Adapter: 1 ID: 0

Read mode : Secure
Utilize accurate stream : Yes
Defeat audio cache : Yes
Make use of C2 pointers : No

Read offset correction : 6
Overread into Lead-In and Lead-Out : No
Fill up missing offset samples with silence : Yes
Delete leading and trailing silent blocks : No
Null samples used in CRC calculations : Yes
Used interface : Native Win32 interface for Win NT & 2000

Used output format : User Defined Encoder
Selected bitrate : 128 kBit/s
Quality : High
Add ID3 tag : No
Command line compressor : C:\Program Files\Exact Audio Copy\Flac\flac.exe
Additional command line options : -V -8 -T "Date=%year%" -T "Genre=%genre%" %source%


TOC of the extracted CD

Track | Start | Length | Start sector | End sector
––––––––––––––––––––––––––––-
1 | 0:00.00 | 1:43.29 | 0 | 7753
2 | 1:43.29 | 1:36.74 | 7754 | 15027
3 | 3:20.28 | 3:32.38 | 15028 | 30965
4 | 6:52.66 | 1:28.55 | 30966 | 37620
5 | 8:21.46 | 0:43.20 | 37621 | 40865
6 | 9:04.66 | 8:40.11 | 40866 | 79876
7 | 17:45.02 | 1:08.18 | 79877 | 84994
8 | 18:53.20 | 2:00.45 | 84995 | 94039
9 | 20:53.65 | 0:51.21 | 94040 | 97885
10 | 21:45.11 | 2:07.04 | 97886 | 107414
11 | 23:52.15 | 0:50.58 | 107415 | 111222
12 | 24:42.73 | 3:19.10 | 111223 | 126157
13 | 28:02.08 | 2:24.67 | 126158 | 137024
14 | 30:27.00 | 4:36.67 | 137025 | 157791
15 | 35:03.67 | 0:44.44 | 157792 | 161135
16 | 35:48.36 | 3:40.35 | 161136 | 177670
17 | 39:28.71 | 1:48.26 | 177671 | 185796
18 | 41:17.22 | 0:50.63 | 185797 | 189609
19 | 42:08.10 | 0:52.06 | 189610 | 193515
20 | 43:00.16 | 3:38.35 | 193516 | 209900
21 | 46:38.51 | 7:23.41 | 209901 | 243166
22 | 54:02.17 | 0:52.00 | 243167 | 247066
23 | 54:54.17 | 3:51.38 | 247067 | 264429
24 | 58:45.55 | 1:13.55 | 264430 | 269959
25 | 59:59.35 | 1:06.30 | 269960 | 274939
26 | 61:05.65 | 1:12.61 | 274940 | 280400


Range status and errors

Selected range

Filename C:\Program Files\Exact Audio Copy\Flac\Monteverdi - L'Orfeo CD2.wav

Peak level 99.2 %
Extraction speed 7.8 X
Range quality 99.9 %
Test CRC C03F3C3A
Copy CRC C03F3C3A
Copy OK

No errors occurred

End of status report

==== Log checksum A5EB71642B60D26DBE099E6B84A2E722E73171BA51103B9DA0B501BAD61C3322 ====

Claudio Cavina, La Venexiana - Monteverdi: L'Orfeo (2007)