Tags
Language
Tags

Clifford Brown - Clifford Brown with Strings (1955) [Reissue 1998]

Posted By: gribovar
Clifford Brown - Clifford Brown with Strings (1955) [Reissue 1998]

Clifford Brown - Clifford Brown with Strings (1955) [Reissue 1998]
EAC Rip | APE (image+.cue+log) - 116 MB | MP3 CBR 320 kbps (LAME 3.93) - 95 MB | Covers - 7 MB
Genre: Jazz, Bop | RAR 3% Rec. | Label: Verve (558 078-2)

There are two schools of thought regarding this Clifford Brown with strings session. Brownie plays quite beautifully and shows off his warm tone on such numbers as "Portrait of Jenny," "Memories of You," "Embraceable You" and "Stardust." But on the other hand the string arrangements by Neal Hefti border on muzak and Brown never really departs from the melody. So the trumpeter's tone is the only reason to acquire this disc which to this listener is a slight disappointment, not living up to its potential.
Tracklist:
01. Yesterdays
02. Laura
03. What's New?
04. Blue Moon
05. Can't Help Lovin' Dat Man
06. Embraceable You
07. Willow Weep For Me
08. Memories Of You
09. Smoke Gets In Your Eyes
10. Portrait Of Jenny
11. Where Or When
12. Stardust

Total time: 40:39

Exact Audio Copy V0.99 prebeta 4 from 23. January 2008

Отчёт EAC об извлечении, выполненном 6. мая 2009, 9:03

Clifford Brown / Clifford Brown with Strings

Дисковод: Optiarc DVD RW AD-7170A Adapter: 0 ID: 0

Режим чтения : Достоверность
Использование точного потока : Да
Отключение кэша аудио : Да
Использование указателей C2 : Нет

Коррекция смещения при чтении : 48
Способность читать области Lead-in и Lead-out : Нет
Заполнение пропущенных сэмплов тишиной : Да
Удаление блоков с тишиной в начале и конце : Нет
При вычислениях CRC использовались нулевые сэмплы : Да
Интерфейс : Встроенный Win32-интерфейс для Win NT/2000

Выходной формат : Внутренние WAV-операции
Формат сэмплов : 44.100 Гц; 16 бит; стерео


TOC извлечённого CD

Трек | Старт | Длительность | Начальный сектор | Конечный сектор
––––––––––––––––––––––––––––––––––-
1 | 0:00.00 | 3:01.22 | 0 | 13596
2 | 3:01.22 | 3:28.20 | 13597 | 29216
3 | 6:29.42 | 3:27.10 | 29217 | 44751
4 | 9:56.52 | 3:16.15 | 44752 | 59466
5 | 13:12.67 | 3:45.73 | 59467 | 76414
6 | 16:58.65 | 3:03.40 | 76415 | 90179
7 | 20:02.30 | 3:27.17 | 90180 | 105721
8 | 23:29.47 | 3:34.35 | 105722 | 121806
9 | 27:04.07 | 3:15.53 | 121807 | 136484
10 | 30:19.60 | 3:26.52 | 136485 | 151986
11 | 33:46.37 | 3:30.08 | 151987 | 167744
12 | 37:16.45 | 3:22.62 | 167745 | 182956


Характеристики диапазона извлечения и сообщения об ошибках

Выбранный диапазон

Имя файла D:\TempTorrent\Clifford Brown - Clifford Brown with Strings.wav

Пиковый уровень 100.0 %
Качество диапазона 100.0 %
CRC теста 9735D573
CRC копии 9735D573
Копирование… OK

Ошибок не произошло

Конец отчёта

[CUETools log; Date: 30.09.2021 11:27:26; Version: 2.1.4]
[CTDB TOCID: z1Si6YWC3NXf96JB6_lr_aHyW6Q-] found.
Track | CTDB Status
1 | (174/175) Accurately ripped
2 | (174/175) Accurately ripped
3 | (174/175) Accurately ripped
4 | (174/175) Accurately ripped
5 | (174/175) Accurately ripped
6 | (174/175) Accurately ripped
7 | (173/175) Accurately ripped
8 | (174/175) Accurately ripped
9 | (174/175) Accurately ripped
10 | (174/175) Accurately ripped
11 | (172/175) Accurately ripped
12 | (173/175) Accurately ripped
[AccurateRip ID: 001202ab-00a8a03a-8c09870c] found.
Track [ CRC | V2 ] Status
01 [f6c772e5|fa481be1] (000+003/104) Accurately ripped
02 [6b3d2836|08beee83] (000+003/104) Accurately ripped
03 [005fa08f|3ae4949a] (000+003/105) Accurately ripped
04 [f5efc4ea|529e4e1a] (000+003/104) Accurately ripped
05 [c33932a2|249f1c51] (000+003/104) Accurately ripped
06 [7831cd5b|e6332bc7] (000+003/104) Accurately ripped
07 [991b7c4f|8a8eea8d] (000+003/105) Accurately ripped
08 [74e644ee|51c83713] (000+003/105) Accurately ripped
09 [d75cb6c8|f9b22416] (000+003/105) Accurately ripped
10 [2cb84d13|9bdf1457] (000+003/102) Accurately ripped
11 [9c7b57c1|f2c63e46] (000+003/104) Accurately ripped
12 [a34dbecd|4f38147b] (000+003/102) Accurately ripped
Offsetted by -2179:
01 [9da1a453] (011/104) Accurately ripped
02 [0b1e67b6] (011/104) Accurately ripped
03 [6c794484] (011/105) Accurately ripped
04 [f112a02a] (011/104) Accurately ripped
05 [a3043c1e] (011/104) Accurately ripped
06 [5f95185a] (011/104) Accurately ripped
07 [e3eb16a9] (011/105) Accurately ripped
08 [f1c5f5d1] (011/105) Accurately ripped
09 [a400f459] (011/105) Accurately ripped
10 [a2382a0f] (011/102) Accurately ripped
11 [ffb42d80] (011/104) Accurately ripped
12 [cef7da0d] (011/102) Accurately ripped
Offsetted by 664:
01 [a7269e75] (015/104) Accurately ripped
02 [b2d2ec36] (015/104) Accurately ripped
03 [8bc87b67] (015/105) Accurately ripped
04 [5f468aea] (014/104) Accurately ripped
05 [ab15a4c2] (014/104) Accurately ripped
06 [a368f4e3] (014/104) Accurately ripped
07 [85f3d67f] (015/105) Accurately ripped
08 [dd3d2f56] (015/105) Accurately ripped
09 [ceed92c0] (015/105) Accurately ripped
10 [2757e333] (013/102) Accurately ripped
11 [9acb8949] (015/104) Accurately ripped
12 [c838502d] (014/102) Accurately ripped
Offsetted by 730:
01 [481a7d01] (013/104) Accurately ripped
02 [9802f736] (013/104) Accurately ripped
03 [95c8e159] (013/105) Accurately ripped
04 [f174f36a] (013/104) Accurately ripped
05 [d002b01a] (013/104) Accurately ripped
06 [c9a219f9] (013/104) Accurately ripped
07 [70c57cc3] (013/105) Accurately ripped
08 [067416d4] (013/105) Accurately ripped
09 [8fa1c14a] (013/105) Accurately ripped
10 [6cfa418b] (013/102) Accurately ripped
11 [3d5381df] (013/104) Accurately ripped
12 [95e9d875] (012/102) Accurately ripped
Offsetted by 1771:
01 [55ac9be7] (003/104) Accurately ripped
02 [711ba4b6] (003/104) Accurately ripped
03 [e214fac2] (003/105) Accurately ripped
04 [732263aa] (003/104) Accurately ripped
05 [a211e306] (003/104) Accurately ripped
06 [a48485d4] (003/104) Accurately ripped
07 [8b6a69c5] (003/105) Accurately ripped
08 [9c2788a3] (003/105) Accurately ripped
09 [34ea423f] (003/105) Accurately ripped
10 [4e9285f7] (003/102) Accurately ripped
11 [7b113b7a] (003/104) Accurately ripped
12 [88143259] (003/102) Accurately ripped
Offsetted by -42:
01 [bee670e9] (000/104) No match (V2 was not tested)
02 [7c4d2136] (000/104) No match (V2 was not tested)
03 [e2bc76f5] (000/105) No match (V2 was not tested)
04 [98e9826a] (000/104) No match (V2 was not tested)
05 [65e82b6a] (000/104) No match (V2 was not tested)
06 [5fdee44d] (000/104) No match (V2 was not tested)
07 [3238fb3b] (000/105) No match (V2 was not tested)
08 [14da9a58] (000/105) No match (V2 was not tested)
09 [b9d2c7b6] (000/105) No match (V2 was not tested)
10 [74c556db] (000/102) No match (V2 was not tested)
11 [d7f64533] (000/104) No match (V2 was not tested)
12 [7d7fade5] (000/102) No match (V2 was not tested)

Track Peak [ CRC32 ] [W/O NULL] [ LOG ]
– 99,9 [9735D573] [EA1A50D9] CRC32
01 93,5 [818B735D] [8AE78FD1]
02 95,5 [E55F5CBD] [8CBFF7A9]
03 99,9 [CC700973] [B1A6F5EE]
04 92,1 [4EF660DC] [4C5D4EDE]
05 93,4 [2B340789] [29C465ED]
06 92,1 [416D2378] [3706E176]
07 86,9 [EB3F809D] [07996F06]
08 97,6 [FF8A456F] [BF351D76]
09 90,6 [3F8A6ED0] [62FBF63C]
10 98,1 [3FFDEFA1] [70E993E6]
11 91,7 [CC5225B7] [D381C8C2]
12 86,7 [4887B9C8] [D341109B]

Thanks to Serdgoz

See also:
Clifford Brown - Memorial Album (1956) [Reissue 2001]
Clifford Brown and Max Roach - At Basin Street (1956) [Reissue 2002]
Clifford Brown - At The Cotton Club 1956 [3CD Box Set] (2011)