Subcategories

Clifford Jordan - Cliff Craft (1957) [Reissue 1997] (Repost)

Posted By: gribovar
Clifford Jordan - Cliff Craft (1957) [Reissue 1997] (Repost)

Clifford Jordan - Cliff Craft (1957) [Reissue 1997]
EAC Rip | FLAC (tracks+.cue+log) - 322 MB | MP3 CBR 320 kbps (LAME 3.93) - 111 MB | Covers (8 MB) included
Genre: Jazz | RAR 3% Rec. | Label: Blue Note/Capitol (CDP 7243 8 56584 2 6)

Happily, Blue Note Records and Michael Cuscuna have reissued this wonderfully relaxed recording, which dates from a very fertile period of the renowned jazz label's history. Tenor saxman Jordan was influenced by and shares influences with Sonny Rollins, Dexter Gordon, John Coltrane and Hank Mobley; the early inspiration of Lester Young can also be heard. On this date, the selection of tunes is pleasantly balanced between three originals, two bebop standards, and Ellington's "Sophisticated Lady." Trumpeter Art Farmer's playing is up to his usual high standard - thoughtful, sensitive and technically brilliant. Pianist Sonny Clark is captured during the most prolific phase of his ten-year recording career; together with bassist George Tucker and drummer Louis Hayes, they create a solid, swinging and simpatico rhythm section.
Tracklist:
01. Laconia
02. Soul-Lo Blues
03. Cliff Craft
04. Confirmation
05. Sophisticated Lady
06. Anthropology

Total time: 43:29

Exact Audio Copy V0.99 prebeta 4 from 23. January 2008

EAC extraction logfile from 9. March 2009, 0:05

Clifford Jordan / Cliff Craft

Used drive : TSSTcorpCDDVDW SH-S223Q Adapter: 2 ID: 1

Read mode : Secure
Utilize accurate stream : Yes
Defeat audio cache : Yes
Make use of C2 pointers : No

Read offset correction : 6
Overread into Lead-In and Lead-Out : No
Fill up missing offset samples with silence : Yes
Delete leading and trailing silent blocks : No
Null samples used in CRC calculations : Yes
Used interface : Installed external ASPI interface
Gap handling : Appended to previous track

Used output format : User Defined Encoder
Selected bitrate : 320 kBit/s
Quality : High
Add ID3 tag : No
Command line compressor : C:\Program Files (x86)\Exact Audio Copy\flac.exe
Additional command line options : -8 -V -T "ARTIST=%a" -T "TITLE=%t" -T "ALBUM=%g" -T "DATE=%y" -T "TRACKNUMBER=%n" -T "GENRE=%m" -T "COMMENT=EAC FLAC -8" %s


TOC of the extracted CD

Track | Start | Length | Start sector | End sector
––––––––––––––––––––––––––––-
1 | 0:00.00 | 7:03.70 | 0 | 31794
2 | 7:03.70 | 8:31.07 | 31795 | 70126
3 | 15:35.02 | 6:30.53 | 70127 | 99429
4 | 22:05.55 | 7:34.10 | 99430 | 133489
5 | 29:39.65 | 6:47.20 | 133490 | 164034
6 | 36:27.10 | 7:01.45 | 164035 | 195654


Track 1

Filename C:\Audio\Clifford Jordan - Cliff Craft\01 - Laconia.wav

Pre-gap length 0:00:02.00

Peak level 94.1 %
Track quality 100.0 %
Test CRC 9550BADC
Copy CRC 9550BADC
Accurately ripped (confidence 1) [CC5F0ACF]
Copy OK

Track 2

Filename C:\Audio\Clifford Jordan - Cliff Craft\02 - Soul-Lo Blues.wav

Pre-gap length 0:00:02.06

Peak level 98.0 %
Track quality 100.0 %
Test CRC 882E50A7
Copy CRC 882E50A7
Accurately ripped (confidence 1) [7831FBB9]
Copy OK

Track 3

Filename C:\Audio\Clifford Jordan - Cliff Craft\03 - Cliff Craft.wav

Pre-gap length 0:00:02.69

Peak level 98.8 %
Track quality 100.0 %
Test CRC F3BD5F23
Copy CRC F3BD5F23
Accurately ripped (confidence 1) [5E13CC27]
Copy OK

Track 4

Filename C:\Audio\Clifford Jordan - Cliff Craft\04 - Confirmation.wav

Pre-gap length 0:00:02.13

Peak level 96.6 %
Track quality 100.0 %
Test CRC E8CE4751
Copy CRC E8CE4751
Accurately ripped (confidence 1) [7E7FCDAA]
Copy OK

Track 5

Filename C:\Audio\Clifford Jordan - Cliff Craft\05 - Sophisticated Lady.wav

Pre-gap length 0:00:02.73

Peak level 94.4 %
Track quality 100.0 %
Test CRC 4ACFEDC2
Copy CRC 4ACFEDC2
Accurately ripped (confidence 1) [1AC6F7E1]
Copy OK

Track 6

Filename C:\Audio\Clifford Jordan - Cliff Craft\06 - Anthropology.wav

Pre-gap length 0:00:02.53

Peak level 98.8 %
Track quality 100.0 %
Test CRC 41F87528
Copy CRC 41F87528
Accurately ripped (confidence 1) [390786FB]
Copy OK


All tracks accurately ripped

No errors occurred

End of status report

[CUETools log; Date: 22.04.2018 23:49:02; Version: 2.1.4]
[CTDB TOCID: sQy5J75gN97nNCSUJBSzzLjAUU8-] found.
Track | CTDB Status
1 | (4/4) Accurately ripped
2 | (4/4) Accurately ripped
3 | (4/4) Accurately ripped
4 | (4/4) Accurately ripped
5 | (4/4) Accurately ripped
6 | (4/4) Accurately ripped
[AccurateRip ID: 000a9904-00385989-520a3006] found.
Track [ CRC | V2 ] Status
01 [cc5f0acf|8c0ad560] (4+5/9) Accurately ripped
02 [7831fbb9|f3f1ac70] (4+5/9) Accurately ripped
03 [5e13cc27|a11e5c30] (4+5/9) Accurately ripped
04 [7e7fcdaa|704663ae] (4+5/9) Accurately ripped
05 [1ac6f7e1|4f1a58be] (4+5/9) Accurately ripped
06 [390786fb|dba5d837] (4+5/9) Accurately ripped

Track Peak [ CRC32 ] [W/O NULL] [ LOG ]
– 98,8 [C0B49204] [FEAD2A5C]
01 94,1 [9550BADC] [68E08097] CRC32
02 98,0 [882E50A7] [DF8CAE2B] CRC32
03 98,8 [F3BD5F23] [462C6618] CRC32
04 96,6 [E8CE4751] [BB6BC1CC] CRC32
05 94,4 [4ACFEDC2] [15ABEB3A] CRC32
06 98,8 [41F87528] [909FFE80] CRC32

Thanks to Mazeppa