Subcategories

Colin Hay - Transcendental Highway (1998) [2009 Compass Remaster]

Posted By: flac jacket
Colin Hay - Transcendental Highway (1998) [2009 Compass Remaster]

Colin Hay - Transcendental Highway (1998) [2009 Compass Remaster]
EAC Secure Rip | FLAC (Image + Cue + Log) Complete Scans (Jpeg 600 dpi) - 599 MB | MP3 (CBR320 Kbps) - 154 MB
Rock, Pop Rock | Compass Records | 7 4505 2 | 62:12 minutes | 5% WinRar Recovery | Hosted on: Uploaded & FilePost

Transcendental Highway is the fifth solo album by former Men at Work lead singer Colin Hay, released in 1998. Compass Records remastered version with new artwork and bonus track.

Since the dismal sales of Colin Hay's 1990 release Wayfaring Sons, none of his solo albums have been released in America, and that's a shame in this case, for there is much here for adult contemporary radio to embrace. On several tracks, Hay demonstrates he hasn't lost the ability to write a clever, catchy pop tune. This is nowhere more evident than the stirring "My Brilliant Feat," which is a commentary on the ups and downs of his own musical career. Interspersed throughout the album, however, are a handful of acoustic numbers that sound utterly depressing and uninspired. Nonetheless, fans of Colin Hay's unforgettable voice will find much to like here. Reviewed by Steve McMullen allmusic.com

Exact Audio Copy V1.0 beta 2 from 29. April 2011

EAC extraction logfile from 24. December 2012, 18:25

Colin Hay / Transcendental Highway [2009 Compass Remaster]

Used drive : HL-DT-STDVDRAM GH60N Adapter: 0 ID: 1

Read mode : Secure
Utilize accurate stream : Yes
Defeat audio cache : Yes
Make use of C2 pointers : No

Read offset correction : 667
Overread into Lead-In and Lead-Out : No
Fill up missing offset samples with silence : Yes
Delete leading and trailing silent blocks : No
Null samples used in CRC calculations : Yes
Used interface : Native Win32 interface for Win NT & 2000

Used output format : User Defined Encoder
Selected bitrate : 1024 kBit/s
Quality : High
Add ID3 tag : No
Command line compressor : C:\Program Files (x86)\Exact Audio Copy\Flac\flac.exe
Additional command line options : -V -5 -T "artist=%albumartist%" -T "title=%title%" -T "album=%albumtitle%" -T "date=%year%" -T "genre=%genre%" -T "tracknumber=%tracknr%" %source%


TOC of the extracted CD

Track | Start | Length | Start sector | End sector
––––––––––––––––––––––––––––-
1 | 0:00.00 | 5:49.24 | 0 | 26198
2 | 5:49.24 | 3:56.32 | 26199 | 43930
3 | 9:45.56 | 5:48.37 | 43931 | 70067
4 | 15:34.18 | 3:32.04 | 70068 | 85971
5 | 19:06.22 | 4:27.36 | 85972 | 106032
6 | 23:33.58 | 4:59.03 | 106033 | 128460
7 | 28:32.61 | 3:24.22 | 128461 | 143782
8 | 31:57.08 | 4:43.20 | 143783 | 165027
9 | 36:40.28 | 4:55.62 | 165028 | 187214
10 | 41:36.15 | 4:39.59 | 187215 | 208198
11 | 46:15.74 | 5:03.71 | 208199 | 230994
12 | 51:19.70 | 5:28.42 | 230995 | 255636
13 | 56:48.37 | 5:23.40 | 255637 | 279901


Range status and errors

Selected range

Filename C:\EAC\Colin Hay - (1998) Transcendental Highway [2009 Compass Remaster]\Colin Hay - Transcendental Highway [2009 Compass Remaster].wav

Peak level 100.0 %
Extraction speed 1.8 X
Range quality 99.9 %
Test CRC AEE010A5
Copy CRC AEE010A5
Copy OK

No errors occurred


AccurateRip summary

Track 1 accurately ripped (confidence 3) [49876F85] (AR v1)
Track 2 accurately ripped (confidence 3) [F46551C7] (AR v1)
Track 3 accurately ripped (confidence 3) [EA2C6856] (AR v1)
Track 4 accurately ripped (confidence 3) [26C94B1A] (AR v1)
Track 5 accurately ripped (confidence 3) [B248C0C9] (AR v1)
Track 6 accurately ripped (confidence 3) [58F4E3C0] (AR v1)
Track 7 accurately ripped (confidence 3) [3440321D] (AR v1)
Track 8 accurately ripped (confidence 3) [62F3FB96] (AR v1)
Track 9 accurately ripped (confidence 3) [1D02FFF9] (AR v1)
Track 10 accurately ripped (confidence 3) [4D0E3ED6] (AR v1)
Track 11 accurately ripped (confidence 3) [6784490A] (AR v1)
Track 12 accurately ripped (confidence 3) [8428EB6E] (AR v1)
Track 13 accurately ripped (confidence 3) [B6003EB2] (AR v1)

All tracks accurately ripped

End of status report

==== Log checksum 54EF85C65E62BB9C5AA7E08EE4EDB8980BE2A129D46B2F6EE51C598D7A607FA4 ====


Track Listing:

01. Transcendental Highway
02. Don´t Believe You Anymore
03. My Brilliant Feat
04. Goodbye My Red Rose
05. If I Go
06. I´m Doing Fine
07. Wash It All Away
08. Cactus
09. Death Row Conversation
10. I´ll Leave The Light On
11. Freedom Calling
12. I Just Don´t Think I´ll Ever Get Over You
13. I'm Doing Fine (Demo) (Bonus Track)


Album Released: October 13, 1998
Compass Records Remastered CD Released: April 21, 2009


foobar2000 1.1.7 / Dynamic Range Meter 1.1.0
log date: 2013-02-13 00:16:57

––––––––––––––––––––––––––––––––––––––––
Analyzed: Colin Hay / Transcendental Highway [2009 Compass Remaster]
––––––––––––––––––––––––––––––––––––––––

DR Peak RMS Duration Track
––––––––––––––––––––––––––––––––––––––––
DR11 0.00 dB -12.36 dB 5:49 01-Transcendental Highway
DR10 -0.10 dB -11.24 dB 3:56 02-Don't Believe You Anymore
DR9 -0.10 dB -11.64 dB 5:48 03-My Brilliant Feat
DR11 -0.10 dB -13.29 dB 3:32 04-Goodbye My Red Rose
DR9 -0.10 dB -11.57 dB 4:27 05-If I Go
DR10 -0.10 dB -13.26 dB 4:59 06-I'm Doing Fine
DR9 -0.10 dB -10.83 dB 3:24 07-Wash It All Away
DR8 -0.10 dB -10.50 dB 4:43 08-Cactus
DR12 -2.80 dB -18.47 dB 4:56 09-Death Row Conversation
DR8 -0.10 dB -10.06 dB 4:40 10-I'll Leave The Light On
DR9 -0.10 dB -10.54 dB 5:04 11-Freedom Calling
DR13 -0.10 dB -16.39 dB 5:29 12-I Just Don't Think I'll Ever Get Over You
DR11 -0.10 dB -14.13 dB 5:24 13-I'm Doing Fine (Demo) (Bonus Track)
––––––––––––––––––––––––––––––––––––––––

Number of tracks: 13
Official DR value: DR10

Samplerate: 44100 Hz
Channels: 2
Bits per sample: 16
Bitrate: 826 kbps
Codec: FLAC
================================================================================

Colin Hay - Transcendental Highway (1998) [2009 Compass Remaster]

Ripped and Scanned from the Stadium Studios Library December 2012
5% WinRar Recovery