Subcategories

Colonel Bagshot - Oh! What A Lovely War (1971) [Reissue 2012]

Posted By: antonyart
Colonel Bagshot - Oh! What A Lovely War (1971) [Reissue 2012]

Colonel Bagshot - Oh! What A Lovely War (1971) [Reissue 2012]
EAC Rip | FLAC (IMG+CUE+LOG) | 237 MB | Complete HQ Scans 600 dpi JPG included | MP3 Lame 320 CBR | 87 MB
Genre: Psychedelic Progressive Rock | RAR 5% Rec. | Label: Flawed Gems (GEM 72) | Uploaded, Depositfiles

This is another great, but completely underrated album by obscure UK rock band (from Liverpool) which wasn't issued in their homeland (in contrast to some of their singles). The same fate met the other British groups from early 70's like Light Of Darkness, Diabolus, lronbridge or Grail. This LP was recorded in London and released in 1971 in USA (by Cadet Concept) and in Italy (by Music Records). The highlight is very moving anti-war anthem ‘Six Days War‘ and the beautiful progressive ballad Lord High Human Being. This fascinating, quasi-progressive and very melodic album contained an eclectic mix of styles, ranging from atmospheric psychedelia, through guitar based soft-progressive to folky ballads - not far away from late 60's The Beatles combined with early 70's The Strawbs and The Moody Blues.
Colonel Bagshot - Oh! What A Lovely War (1971) [Reissue 2012]

Tracklist:

01. Six Day War 04:02
02. Lay It Down 03:10
03. Lord High Human Being 03:03
04. Headhunters 02:51
05. I've Seen The Light 04:48
06. Dirty Delilah Blues 04:21
07. Sometimes 02:08
08. That's What I'd Like To Know 04:02
09. Smile 02:56
10. Tightrope Tamer 02:51
11. Oh! What A Lovely War 03:18

Total: 37:30

Exact Audio Copy V1.0 beta 3 from 29. August 2011

EAC extraction logfile from 1. December 2012, 14:11

Colonel Bagshot / Oh! What A Lovely War

Used drive : HL-DT-STDVDRAM GT34N Adapter: 0 ID: 2

Read mode : Secure
Utilize accurate stream : Yes
Defeat audio cache : Yes
Make use of C2 pointers : No

Read offset correction : 103
Overread into Lead-In and Lead-Out : No
Fill up missing offset samples with silence : Yes
Delete leading and trailing silent blocks : No
Null samples used in CRC calculations : Yes
Used interface : Native Win32 interface for Win NT & 2000

Used output format : User Defined Encoder
Selected bitrate : 896 kBit/s
Quality : High
Add ID3 tag : Yes
Command line compressor : C:\Program Files (x86)\Exact Audio Copy\FLAC\FLAC.EXE
Additional command line options : -6 -V -T "ARTIST=%artist%" -T "TITLE=%title%" -T "ALBUM=%albumtitle%" -T "DATE=%year%" -T "TRACKNUMBER=%tracknr%" -T "GENRE=%genre%" -T "COMMENT=%comment%" -T "BAND=%albuminterpret%" -T "ALBUMARTIST=%albuminterpret%" -T "COMPOSER=%composer%" %haslyrics%–tag-from-file=LYRICS="%lyricsfile%"%haslyrics% -T "DISCNUMBER=%cdnumber%" -T "TOTALDISCS=%totalcds%" -T "TOTALTRACKS=%numtracks%" %hascover%–picture="%coverfile%"%hascover% %source% -o %dest%


TOC of the extracted CD

Track | Start | Length | Start sector | End sector
––––––––––––––––––––––––––––-
1 | 0:00.00 | 4:01.71 | 0 | 18145
2 | 4:01.71 | 3:09.53 | 18146 | 32373
3 | 7:11.49 | 3:03.09 | 32374 | 46107
4 | 10:14.58 | 2:50.72 | 46108 | 58929
5 | 13:05.55 | 4:48.07 | 58930 | 80536
6 | 17:53.62 | 4:20.46 | 80537 | 100082
7 | 22:14.33 | 2:08.20 | 100083 | 109702
8 | 24:22.53 | 4:01.72 | 109703 | 127849
9 | 28:24.50 | 2:55.67 | 127850 | 141041
10 | 31:20.42 | 2:51.10 | 141042 | 153876
11 | 34:11.52 | 3:18.08 | 153877 | 168734


Range status and errors

Selected range

Filename D:\FLAC\COLONEL BAGSHOT -71- Oh! What A Lovely War\Colonel Bagshot - Oh! What A Lovely War.wav

Peak level 100.0 %
Extraction speed 1.9 X
Range quality 100.0 %
Test CRC 0C232714
Copy CRC 0C232714
Copy OK

No errors occurred


AccurateRip summary

Track 1 not present in database
Track 2 not present in database
Track 3 not present in database
Track 4 not present in database
Track 5 not present in database
Track 6 not present in database
Track 7 not present in database
Track 8 not present in database
Track 9 not present in database
Track 10 not present in database
Track 11 not present in database

None of the tracks are present in the AccurateRip database

End of status report

==== Log checksum 32F25FBCDA49370D45F3AE016C5137DB691FDB22EB871E3B3C666A6D05476636 ====

foobar2000 1.1.9 / Dynamic Range Meter 1.1.1
log date: 2013-02-05 12:53:23

––––––––––––––––––––––––––––––––––––––––
Analyzed: Colonel Bagshot / Oh! What A Lovely War
––––––––––––––––––––––––––––––––––––––––

DR Peak RMS Duration Track
––––––––––––––––––––––––––––––––––––––––
DR11 -0.10 dB -13.33 dB 4:02 01-Six Day War
DR9 -0.10 dB -9.95 dB 3:10 02-Lay It Down
DR9 -0.10 dB -11.17 dB 3:03 03-Lord High Human Being
DR9 -0.10 dB -10.62 dB 2:51 04-Headhunters
DR9 0.00 dB -9.87 dB 4:48 05-I've Seen The Light
DR9 -0.10 dB -10.69 dB 4:21 06-Dirty Delilah Blues
DR12 0.00 dB -13.88 dB 2:08 07-Sometimes
DR10 0.00 dB -12.00 dB 4:02 08-That's What I'd Like To Know
DR10 0.00 dB -13.03 dB 2:56 09-Smile
DR10 0.00 dB -10.54 dB 2:51 10-Tightrope Tamer
DR9 -0.10 dB -11.03 dB 3:18 11-Oh! What A Lovely War
––––––––––––––––––––––––––––––––––––––––

Number of tracks: 11
Official DR value: DR10

Samplerate: 44100 Hz
Channels: 2
Bits per sample: 16
Bitrate: 848 kbps
Codec: FLAC
================================================================================

‘What A Lovely War’ … is entitled to such a puzzling irony, the British band’s debut LP Colonel Bagshot does not rocked the Billboard list of the very rich musically 1971.
What’s more, in their own country no one even thought about release their album. Debut took place only in the United States.
The next album, which was released for the first time on CD, thanks to the Swedish label: Flawed Games… album devoted to anti-war topics is a piece of excellent, soft – progressive
music under the sign of the late Beatles, The Strawbs and early Moody Blues. And while fans of 10-minute solos on the Hammond organ and distorted guitars may feel disappointed,
but fans of the good old play based on a clear and ambitious arrangements of tunes from the early 70′s – should be thrilled!
I’m a big fan of this album, but I needed a few hearings to bite deeply into her mood. Just one little thing … Over 10 years ago, an American DJ just took the tape from the first track
(Six Days War), remixed it a bit, added a typical soul drums, made a clip of the starving people of Africa i .. so “borrowed” a piece has reached the very top of the U.S. charts and sold
millions of copies!and was used for the soundtrack of “Phone Booth” starring Colin Farrell (no relation to Brian).
Funny story is that these facts at the time it was, not Internet (yes, yes meant that contemporary rock librarians ‘Colonel Bagshot’ filed under band from the USA.
No, but now that we have the internet … it turned out that the native British people of flesh and blood!
The group was formed in the late ’60s. They played a lot of concerts and recorded albums. Their work, we compare some of the achievements of The Beatles, The Moody Blues, or even
The Strawbs. Album padded ro is the 3.4-minute intervals protest songami a strong anti-war message and already less librarians determine how this type of music: psychedelic rock, or
so-called soft-progressive … It is important that arrangements are top notch, the board listened to with great pleasure, even after so many years, and “Colonel” can sometimes bump so
that the heel is coming! …. Just great!Colonel Bagshots toured with Slade and went through transitions with new band members before Brian Farrell Became a solo artist signed to Warner
Brothers and Kenny Parry, Dave Dover, Terry McCusker went on to form ‘Nickelodeon’ tight and very popular rock / pop trio. Colonel Bagshot reformed in 2006 for the launch of a book
about the 70′s music scene at the Cavern in Liverpool.

from Adamus67

Colonel Bagshot - Oh! What A Lovely War (1971) [Reissue 2012]


This CD is from my personal collection. My original rip & my scan work.
>> here is my blog with all my rips <<
Please, do not mirror these links at any web pages.
FLAC + HQ 600 dpi complete scans:

Uploaded

Depositfiles

MP3 + 300 dpi front/back cover scans:

Uploaded

Depositfiles


Password: Ant