Tags
Language
Tags
November 2022
Su Mo Tu We Th Fr Sa
30 31 1 2 3 4 5
6 7 8 9 10 11 12
13 14 15 16 17 18 19
20 21 22 23 24 25 26
27 28 29 30 1 2 3

Colosseum - LiveS - The Reunion Concerts 1994 (1995) [Reissue 2006] (Repost)

Posted By: gribovar
Colosseum - LiveS - The Reunion Concerts 1994 (1995) [Reissue 2006] (Repost)

Colosseum - LiveS - The Reunion Concerts 1994 (1995) [Reissue 2006]
EAC Rip | WavPack (image+.cue+log) - 502 MB | MP3 CBR 320 kbps (LAME 3.93) - 182 MB | Covers - 46 MB
Genre: Progressive/Jazz Rock | RAR 3% Rec. | Label: Castle Music/Sanctuary (CMRCD1355)

Drummer Jon Hiseman seemingly had low expectations for a Colosseum reunion. The group decided to re-form at keyboardist Dave Greenslade's 50th birthday party, although Hiseman wasn't sure the timing was right. He was hopeful his German bookers could maybe put together six shows; they swiftly found 30, with Colosseum going on to play over 100 gigs during 1994-1995. And why not? In their three-year lifespan, the group racked up three U.K. Top 20 albums, while simultaneously blowing the socks off of Germany and much of Europe. And coming back together after two decades was, judging by the music here, a lot like coming home. The Reunion Concert Cologne 1994 took place at the E-Werk in Cologne, and was the band's second gig together. Filmed for German television, it resulted in the Reunion Concerts 1994 live album which was released the following year. A video of the gig also hit the shelves, and later a DVD, with this two-disc set completing the package, as the CD features the songs left off the original live album. Those include an exuberant sax-led take on "Those About to Die," a wild ride through "Skellington," and a quartet of excellent covers which all featured on the band's 1971 Colosseum Live album. It was this lineup that let loose that set, and they sound just as good 20-plus years later, with the group eagerly swinging into their legendary "The Valentyne Suite" and other grand numbers from their heyday across the DVD. A splendid show now finally available in its entirety.

Tracklist:
01. Those About to Die
02. Elegy
03. The Valentine Suite - January's Search
04. The Valentine Suite - February's Velentyne
05. The Valentine Suite - The Grass Is Always Greener
06. Theme for an Imaginary Western
07. The Machine Demands Another Sacrifice
08. Solo Colonia
09. Lost Angeles
10. Stormy Monday Blues

Total time: 01:17:15

Exact Audio Copy V1.0 beta 3 from 29. August 2011

EAC extraction logfile from 8. March 2012, 19:51

Colosseum / Colosseum Lives: The Reunion Concerts

Used drive : Optiarc DVD RW AD-7200S Adapter: 2 ID: 1

Read mode : Secure
Utilize accurate stream : Yes
Defeat audio cache : Yes
Make use of C2 pointers : No

Read offset correction : 48
Overread into Lead-In and Lead-Out : No
Fill up missing offset samples with silence : Yes
Delete leading and trailing silent blocks : No
Null samples used in CRC calculations : Yes
Used interface : Installed external ASPI interface

Used output format : User Defined Encoder
Selected bitrate : 1024 kBit/s
Quality : High
Add ID3 tag : No
Command line compressor : C:\Program Files\Exact Audio Copy\wavpack.exe
Additional command line options : -hlmx2 %source% %dest%


TOC of the extracted CD

Track | Start | Length | Start sector | End sector
––––––––––––––––––––––––––––-
1 | 0:00.32 | 5:11.11 | 32 | 23367
2 | 5:11.43 | 4:23.45 | 23368 | 43137
3 | 9:35.13 | 5:38.45 | 43138 | 68532
4 | 15:13.58 | 5:16.15 | 68533 | 92247
5 | 20:29.73 | 9:53.12 | 92248 | 136734
6 | 30:23.10 | 6:42.28 | 136735 | 166912
7 | 37:05.38 | 2:02.20 | 166913 | 176082
8 | 39:07.58 | 12:26.27 | 176083 | 232059
9 | 51:34.10 | 13:28.55 | 232060 | 292714
10 | 65:02.65 | 12:11.72 | 292715 | 347611


Range status and errors

Selected range

Filename C:\lossless\Colosseum\Colosseum - Colosseum Lives- The Reunion Concerts.wav

Peak level 100.0 %
Extraction speed 4.5 X
Range quality 100.0 %
Test CRC 8061A6D7
Copy CRC 8061A6D7
Copy OK

No errors occurred


AccurateRip summary

Track 1 cannot be verified as accurate (confidence 4) [0E899DD1], AccurateRip returned [FABDA91A] (AR v2)
Track 2 cannot be verified as accurate (confidence 4) [F25125B3], AccurateRip returned [B962D846] (AR v2)
Track 3 cannot be verified as accurate (confidence 4) [68774D8D], AccurateRip returned [B758F144] (AR v2)
Track 4 cannot be verified as accurate (confidence 4) [744A4B37], AccurateRip returned [3D07977E] (AR v2)
Track 5 cannot be verified as accurate (confidence 4) [68FA11BE], AccurateRip returned [2ECFA0AC] (AR v2)
Track 6 cannot be verified as accurate (confidence 4) [692DC04E], AccurateRip returned [89AEB8D1] (AR v2)
Track 7 cannot be verified as accurate (confidence 4) [DFCD0610], AccurateRip returned [EB5B29FB] (AR v2)
Track 8 cannot be verified as accurate (confidence 4) [E4153591], AccurateRip returned [EC770609] (AR v2)
Track 9 cannot be verified as accurate (confidence 4) [CB879887], AccurateRip returned [626F9E27] (AR v2)
Track 10 cannot be verified as accurate (confidence 4) [D1A38C63], AccurateRip returned [923B3ABC] (AR v2)

No tracks could be verified as accurate
You may have a different pressing from the one(s) in the database

End of status report

–– CUETools DB Plugin V2.1.3

[CTDB TOCID: 4TKZe.91AHAExTVsoZQe0aeK4T0-] found, Submit result: discs with pregaps not supported in this protocol version
[b3d48546] (4/4) Accurately ripped


==== Log checksum 4851C0D61D1D0C9805878A77483BA82EB2BB484573EB37F786EDCE4336896909 ====

[CUETools log; Date: 24.06.2018 1:21:43; Version: 2.1.4]
Pregap length 00:00:32.
[CTDB TOCID: 4TKZe.91AHAExTVsoZQe0aeK4T0-] found.
Track | CTDB Status
1 | (2/2) Accurately ripped
2 | (2/2) Accurately ripped
3 | (2/2) Accurately ripped
4 | (2/2) Accurately ripped
5 | (2/2) Accurately ripped
6 | (2/2) Accurately ripped
7 | (2/2) Accurately ripped
8 | (2/2) Accurately ripped
9 | (1/2) Accurately ripped
10 | (1/2) Accurately ripped
[AccurateRip ID: 001819ad-00c8a119-83121a0a] found.
Track [ CRC | V2 ] Status
01 [e87c63aa|0e899dd1] (0+0/9) No match
02 [b1a40c16|f25125b3] (0+0/9) No match
03 [afc4c8bf|68774d8d] (0+0/8) No match
04 [d5d83319|744a4b37] (0+0/8) No match
05 [695021ee|68fa11be] (0+0/9) No match
06 [8363c7b4|692dc04e] (0+0/8) No match
07 [a2efb708|dfcd0610] (0+0/8) No match
08 [7cdaad83|e4153591] (0+0/9) No match
09 [eb4494b1|cb879887] (0+0/9) No match
10 [ab0acfb4|d1a38c63] (0+0/8) No match
Offsetted by 664:
01 [fabda91a] (4/9) Accurately ripped
02 [b962d846] (4/9) Accurately ripped
03 [b758f144] (4/8) Accurately ripped
04 [3d07977e] (4/8) Accurately ripped
05 [2ecfa0ac] (4/9) Accurately ripped
06 [89aeb8d1] (4/8) Accurately ripped
07 [eb5b29fb] (4/8) Accurately ripped
08 [ec770609] (4/9) Accurately ripped
09 [626f9e27] (4/9) Accurately ripped
10 [923b3abc] (4/8) Accurately ripped

Track Peak [ CRC32 ] [W/O NULL] [ LOG ]
– 100,0 [8061A6D7] [9E24F3EC] CRC32
01 100,0 [5BB31B71] [33F59F8D]
02 93,8 [CDB6B61A] [43C6013B]
03 89,5 [6C070BF8] [08FDF24A]
04 96,4 [D7E2F65B] [D1CFFF69]
05 95,0 [6167FF19] [5037D26B]
06 97,4 [81FFDBEE] [E62D5F54]
07 94,2 [7C446123] [78C762D3]
08 96,7 [B4097630] [F18E8AED]
09 100,0 [F0B0BD45] [9A65D861]
10 94,6 [F338AF9D] [E9BE776D]

Thanks to taurus66