Subcategories

VA - Tom Middleton Presents Crazy Covers (2 Volumes) (2005/7)

Posted By: mook45
VA - Tom Middleton Presents Crazy Covers (2 Volumes) (2005/7)

VA - Tom Middleton Presents Crazy Covers (2 Volumes) (2005/7)
EAC | FLAC IMG,CUE+LOG = 888/911MB | MP3@320 = 344/326MB | 400 dpi Scans
Pop/Rock | Label: Family Recordings - 982 845-5/5301446 | FSo/FSe


Two double CDs for cover lovers.

VA - Tom Middleton Presents Crazy Covers (2 Volumes) (2005/7)


Tom Middleton Presents Cosmosonica: Crazy Covers Vol. 1 (2005)
Track listing
Disc 1

1. Ghetto Classics (Ricky V Valentine)
2. Crazy In Love (BBC Live Version) (Snow Patrol)
3. Mrs Robinson (The Lemonheads)
4. Harder Better Faster Stronger (Uminski)
5. Satisfaction (Who Made Who)
6. Rock Your Body (Kiko) (S. Deschezeaux)
7. Smells Like Electro (Disco That No Talent Hack)
8. One Nation Under A Groove (Chaka Demus & Pliers)
9. Roxanne (Aswad)
10. Can't Stand Losing You (Steel Pulse)
11. Song 2Wo (Earl Zinger)
12. Billie Jean (Sly & Robbie) (The Gang)
13. Beat It (Senor Coconut)
14. Sound Of Silence (Lambeth Community Youth Steel Orchestra)
15. I Will Survive (Usha Uthup)
16. Son Of A Preacher Man (Sylvia V)
17. Take Me Out (Scissor Sisters)
18. Jump (Aztec Camera)
19. Walk This Way (Hayseed Dixie)
20. Sunshine Of Your Love (Spanky Wilson)

Disc 2

1. Here Comes The Sun (Nina Simone)
2. Summertime (George Benson Quartet)
3. Satisfaction (Cheo Feliciano)
4. Teenage Kicks (Nouvelle Vague)
5. Thinking Of You (Paul Weller)
6. Keep On Movin' (Re:Jazz)
7. White Lines (Barefoot)
8. Frontin' (Jamie Cullum)
9. People Make The World Go Round (The Chosen Few)
10. Express Yourself (Byron Lee & Dragonaires)
11. Fever (Susan Cadogan)
12. Seven Nation Army (Nostalgia 77)
13. Ms Dynamite (The Ukelele Orchestra Of Great Britain)
14. I Still Haven't Found What I'm Looking For (Booker T) (The MGs)
15. Young Hearts (Nancy Wallace)
16. Boy's Don't Cry (Victor Malloy)
17. Free Falling (Kings Of Convenience)
18. Purple Rain (Basix)
19. Bridge Over Troubled Waters (Aretha Franklin)

Exact Audio Copy V0.99 prebeta 5 from 4. May 2009

EAC extraction logfile from 28. December 2009, 19:02

Various Artists / Cosmosonica - Tom Middleton Presents Crazy Covers Vol. 1 (Disc 1) (Party Covers)

Used drive : HP DVD Writer 1040r Adapter: 1 ID: 0

Read mode : Secure
Utilize accurate stream : Yes
Defeat audio cache : Yes
Make use of C2 pointers : No

Read offset correction : 6
Overread into Lead-In and Lead-Out : No
Fill up missing offset samples with silence : Yes
Delete leading and trailing silent blocks : No
Null samples used in CRC calculations : Yes
Used interface : Native Win32 interface for Win NT & 2000

Used output format : User Defined Encoder
Selected bitrate : 1024 kBit/s
Quality : High
Add ID3 tag : No
Command line compressor : C:\Program Files\Exact Audio Copy\FLAC\FLAC.EXE
Additional command line options : -5 -V -T "ARTIST=%a" -T "TITLE=%t" -T "ALBUM=%g" -T "DATE=%y" -T "TRACKNUMBER=%n" -T "GENRE=%m" -T "COMMENT=EAC Flac 1.1.2 -5" %s


TOC of the extracted CD

Track | Start | Length | Start sector | End sector
––––––––––––––––––––––––––––-
1 | 0:00.00 | 1:17.24 | 0 | 5798
2 | 1:17.24 | 4:20.59 | 5799 | 25357
3 | 5:38.08 | 3:28.17 | 25358 | 40974
4 | 9:06.25 | 3:50.62 | 40975 | 58286
5 | 12:57.12 | 3:59.38 | 58287 | 76249
6 | 16:56.50 | 4:48.05 | 76250 | 97854
7 | 21:44.55 | 4:08.46 | 97855 | 116500
8 | 25:53.26 | 4:17.73 | 116501 | 135848
9 | 30:11.24 | 3:30.47 | 135849 | 151645
10 | 33:41.71 | 4:13.68 | 151646 | 170688
11 | 37:55.64 | 3:46.01 | 170689 | 187639
12 | 41:41.65 | 3:24.62 | 187640 | 203001
13 | 45:06.52 | 4:17.37 | 203002 | 222313
14 | 49:24.14 | 4:02.13 | 222314 | 240476
15 | 53:26.27 | 3:08.08 | 240477 | 254584
16 | 56:34.35 | 2:02.07 | 254585 | 263741
17 | 58:36.42 | 4:29.60 | 263742 | 283976
18 | 63:06.27 | 2:51.18 | 283977 | 296819
19 | 65:57.45 | 4:14.70 | 296820 | 315939
20 | 70:12.40 | 3:43.70 | 315940 | 332734


Range status and errors

Selected range

Filename C:\Users\Mike3\Desktop\Cosmosonica - Tom Middleton Presents Crazy Covers Vol. 1 (Flac)\Disc 1 - Party Covers\Various Artists - Cosmosonica - Tom Middleton Presents Crazy Covers Vol. 1 (Disc 1) (Party Covers).wav

Peak level 100.0 %
Range quality 100.0 %
Copy CRC 5AC83B22
Copy OK

No errors occurred


AccurateRip summary

Track 1 accurately ripped (confidence 3) [BBBAC26B]
Track 2 accurately ripped (confidence 3) [751192F1]
Track 3 accurately ripped (confidence 3) [6A294691]
Track 4 accurately ripped (confidence 3) [35988788]
Track 5 accurately ripped (confidence 3) [478B5AD4]
Track 6 accurately ripped (confidence 3) [AA259C6A]
Track 7 accurately ripped (confidence 3) [5084E0B0]
Track 8 accurately ripped (confidence 3) [25B2E1EC]
Track 9 accurately ripped (confidence 3) [9DF35CDD]
Track 10 accurately ripped (confidence 3) [5DF95B20]
Track 11 accurately ripped (confidence 3) [8857546B]
Track 12 accurately ripped (confidence 3) [5B4E0A91]
Track 13 accurately ripped (confidence 3) [C8F2F450]
Track 14 accurately ripped (confidence 3) [13398097]
Track 15 accurately ripped (confidence 3) [D78491B8]
Track 16 accurately ripped (confidence 3) [EA48F209]
Track 17 accurately ripped (confidence 3) [80ED1119]
Track 18 accurately ripped (confidence 3) [9A17B444]
Track 19 accurately ripped (confidence 3) [5AA45A7D]
Track 20 accurately ripped (confidence 3) [B5CA714F]

All tracks accurately ripped

End of status report


Exact Audio Copy V0.99 prebeta 5 from 4. May 2009

EAC extraction logfile from 28. December 2009, 19:29

Various Artists / Cosmosonica - Tom Middleton Presents Crazy Covers Vol. 1 (Disc 2) (Chilled Covers)

Used drive : HP DVD Writer 1040r Adapter: 1 ID: 0

Read mode : Secure
Utilize accurate stream : Yes
Defeat audio cache : Yes
Make use of C2 pointers : No

Read offset correction : 6
Overread into Lead-In and Lead-Out : No
Fill up missing offset samples with silence : Yes
Delete leading and trailing silent blocks : No
Null samples used in CRC calculations : Yes
Used interface : Native Win32 interface for Win NT & 2000

Used output format : User Defined Encoder
Selected bitrate : 1024 kBit/s
Quality : High
Add ID3 tag : No
Command line compressor : C:\Program Files\Exact Audio Copy\FLAC\FLAC.EXE
Additional command line options : -5 -V -T "ARTIST=%a" -T "TITLE=%t" -T "ALBUM=%g" -T "DATE=%y" -T "TRACKNUMBER=%n" -T "GENRE=%m" -T "COMMENT=EAC Flac 1.1.2 -5" %s


TOC of the extracted CD

Track | Start | Length | Start sector | End sector
––––––––––––––––––––––––––––-
1 | 0:00.00 | 3:42.51 | 0 | 16700
2 | 3:42.51 | 2:22.34 | 16701 | 27384
3 | 6:05.10 | 2:27.30 | 27385 | 38439
4 | 8:32.40 | 2:03.38 | 38440 | 47702
5 | 10:36.03 | 3:49.20 | 47703 | 64897
6 | 14:25.23 | 5:52.51 | 64898 | 91348
7 | 20:17.74 | 4:24.12 | 91349 | 111160
8 | 24:42.11 | 5:33.73 | 111161 | 136208
9 | 30:16.09 | 3:13.33 | 136209 | 150716
10 | 33:29.42 | 2:41.20 | 150717 | 162811
11 | 36:10.62 | 2:17.72 | 162812 | 173158
12 | 38:28.59 | 4:19.50 | 173159 | 192633
13 | 42:48.34 | 3:07.14 | 192634 | 206672
14 | 45:55.48 | 4:17.02 | 206673 | 225949
15 | 50:12.50 | 3:59.69 | 225950 | 243943
16 | 54:12.44 | 3:50.47 | 243944 | 261240
17 | 58:03.16 | 4:12.51 | 261241 | 280191
18 | 62:15.67 | 3:58.22 | 280192 | 298063
19 | 66:14.14 | 5:28.58 | 298064 | 322721


Range status and errors

Selected range

Filename C:\Users\Mike3\Desktop\Cosmosonica - Tom Middleton Presents Crazy Covers Vol. 1 (Flac)\Disc 2 - Chilled Covers\Various Artists - Cosmosonica - Tom Middleton Presents Crazy Covers Vol. 1 (Disc 2) (Chilled Covers).wav

Peak level 100.0 %
Range quality 100.0 %
Copy CRC 28A3A808
Copy OK

No errors occurred


AccurateRip summary

Track 1 accurately ripped (confidence 3) [A9D2F2F9]
Track 2 accurately ripped (confidence 3) [D7ED5E51]
Track 3 accurately ripped (confidence 3) [A6D50C47]
Track 4 accurately ripped (confidence 3) [64B47740]
Track 5 accurately ripped (confidence 3) [509818ED]
Track 6 accurately ripped (confidence 3) [7384C27A]
Track 7 accurately ripped (confidence 3) [902BA16C]
Track 8 accurately ripped (confidence 3) [961E9DDD]
Track 9 accurately ripped (confidence 3) [851055AD]
Track 10 accurately ripped (confidence 3) [3FF1D5F3]
Track 11 accurately ripped (confidence 3) [3483ACD2]
Track 12 accurately ripped (confidence 3) [A957C79E]
Track 13 accurately ripped (confidence 3) [BE6E27B5]
Track 14 accurately ripped (confidence 3) [536BDDA9]
Track 15 accurately ripped (confidence 3) [573A31F3]
Track 16 accurately ripped (confidence 2) [D5B28B1A]
Track 17 accurately ripped (confidence 2) [AE00E848]
Track 18 accurately ripped (confidence 3) [A5756819]
Track 19 accurately ripped (confidence 3) [26771914]

All tracks accurately ripped

End of status report

Files
Lame 320 Kbps = 344MB
Flac 843 Kbps ABR = 888MB

VA - Tom Middleton Presents Crazy Covers (2 Volumes) (2005/7)


Tom Middleton Presents Crazy Covers 2 (2007)
Track listing
Disc 1

1. Alphabet Street - Dynamo's Rhythm Aces
2. Cars - Katzenjammers
3. Fly Me To The Moon - Lyn Collins
4. Get Ur Freak On - Shawn Lee & His Ping Pong Orchestra
5. Hit The Road Jack - Mo Horizons
6. I Bet You Look Good On The Dancefloor (Arctic Babes mix) - Sugababes
7. I Don't Feel Like Dancing - Hayseed Dixie
8. Mamma Mia - High Class Family Butchers
9. Move On Up - Jam
10. New Pollution - Futro
11. One I Love - Moog Cookbook
12. Ooh La Hot Love live from Glasgow Barrowlands - Fratellis
13. Panic - Dynamo's Rhythm Aces
14. Rock El Casbah - Rachid Taha
15. Rockit - dZihan & Kamien
16. Sex Bomb - Palast Orchester & Max Raabe
17. Sing It Back (Can 7 1930's mix) - Moloko
18. Smells Like Teen Spirit - Paul Anka
19. Title Theme Star Wars - Meco
20. Ces Bottes Sont Faites Pour Marcher - Eileen
21. What Have You Done For Me Lately - Sharon Jones & The Dap-Kings

Disc 2

1. Can't Get You Out Of My Head - Shawn Lee & His Ping Pong Orchestra
2. Don't Speak - Anna Maria Jopek
3. Everybody's Gotta Learn Sometime - Alucidnation
4. For What It's Worth - Sergio Mendes & Brasil '66
5. Go - Maxence Cyrin
6. High And Dry - Jamie Cullum
7. I Will Survive - Puppini Sisters
8. LSF - Vitamin String Quartet
9. Strings Of Life - Christian Prommer Drum Lesson & Roberto Di Gioia/Wolfgang Haffner
10. Sunny - James Brown & Dee Felice Trio
11. Sunshine Of Your Love - Ella Fitzgerald
12. Teardrop - Elbow
13. Thriller - Ian Brown
14. UK Girls (Physical) - Goldfrapp
15. Unfinished Symphony - Tina Turner
16. We Don't Talk Anymore - Nancy Wallace
17. Why - Memo
18. You Used To Hold Me So Tight - Reel People & Angela Johnson
19. Young Folks - Dawn Landes

Exact Audio Copy V0.99 prebeta 5 from 4. May 2009

EAC extraction logfile from 28. December 2009, 21:11

Various Artists / Tom Middleton Presents Crazy Covers 2 (CD1)

Used drive : HP DVD Writer 1040r Adapter: 1 ID: 0

Read mode : Secure
Utilize accurate stream : Yes
Defeat audio cache : Yes
Make use of C2 pointers : No

Read offset correction : 6
Overread into Lead-In and Lead-Out : No
Fill up missing offset samples with silence : Yes
Delete leading and trailing silent blocks : No
Null samples used in CRC calculations : Yes
Used interface : Native Win32 interface for Win NT & 2000

Used output format : User Defined Encoder
Selected bitrate : 1024 kBit/s
Quality : High
Add ID3 tag : No
Command line compressor : C:\Program Files\Exact Audio Copy\FLAC\FLAC.EXE
Additional command line options : -5 -V -T "ARTIST=%a" -T "TITLE=%t" -T "ALBUM=%g" -T "DATE=%y" -T "TRACKNUMBER=%n" -T "GENRE=%m" -T "COMMENT=EAC Flac 1.1.2 -5" %s


TOC of the extracted CD

Track | Start | Length | Start sector | End sector
––––––––––––––––––––––––––––-
1 | 0:00.00 | 2:08.62 | 0 | 9661
2 | 2:08.62 | 2:44.45 | 9662 | 22006
3 | 4:53.32 | 2:40.08 | 22007 | 34014
4 | 7:33.40 | 2:18.17 | 34015 | 44381
5 | 9:51.57 | 5:39.62 | 44382 | 69868
6 | 15:31.44 | 2:44.72 | 69869 | 82240
7 | 18:16.41 | 3:44.56 | 82241 | 99096
8 | 22:01.22 | 2:56.43 | 99097 | 112339
9 | 24:57.65 | 3:01.29 | 112340 | 125943
10 | 27:59.19 | 3:50.14 | 125944 | 143207
11 | 31:49.33 | 3:42.11 | 143208 | 159868
12 | 35:31.44 | 1:54.33 | 159869 | 168451
13 | 37:26.02 | 3:40.62 | 168452 | 185013
14 | 41:06.64 | 2:48.23 | 185014 | 197636
15 | 43:55.12 | 4:30.38 | 197637 | 217924
16 | 48:25.50 | 3:46.25 | 217925 | 234899
17 | 52:12.00 | 2:59.38 | 234900 | 248362
18 | 55:11.38 | 2:10.19 | 248363 | 258131
19 | 57:21.57 | 2:40.09 | 258132 | 270140
20 | 60:01.66 | 3:44.64 | 270141 | 287004
21 | 63:46.55 | 2:31.13 | 287005 | 298342
22 | 66:17.68 | 3:11.61 | 298343 | 312728
23 | 69:29.54 | 5:24.01 | 312729 | 337029


Range status and errors

Selected range

Filename C:\Users\Mike3\Desktop\Tom Middleton Presents Crazy Covers 2 (Flac)\Disc 1 - Crazy Covers\Various Artists - Tom Middleton Presents Crazy Covers 2 (CD1).wav

Peak level 100.0 %
Range quality 100.0 %
Copy CRC 42CA67B6
Copy OK

No errors occurred


AccurateRip summary

Track 1 accurately ripped (confidence 1) [2FEFF0CC]
Track 2 accurately ripped (confidence 1) [A81B0425]
Track 3 accurately ripped (confidence 1) [4C35EB0F]
Track 4 accurately ripped (confidence 1) [A867C7EE]
Track 5 accurately ripped (confidence 1) [3053AC9F]
Track 6 accurately ripped (confidence 1) [6C4D6E49]
Track 7 accurately ripped (confidence 1) [EE494A12]
Track 8 accurately ripped (confidence 1) [E015E7CC]
Track 9 accurately ripped (confidence 1) [A571B5FB]
Track 10 accurately ripped (confidence 1) [0593338A]
Track 11 accurately ripped (confidence 1) [B1B13162]
Track 12 accurately ripped (confidence 1) [6E489564]
Track 13 accurately ripped (confidence 1) [FB496040]
Track 14 accurately ripped (confidence 1) [07E8E40F]
Track 15 accurately ripped (confidence 1) [A8454251]
Track 16 accurately ripped (confidence 1) [34184181]
Track 17 accurately ripped (confidence 1) [53F22202]
Track 18 accurately ripped (confidence 1) [97F32CC9]
Track 19 accurately ripped (confidence 1) [F645A6A0]
Track 20 accurately ripped (confidence 1) [BFF5E759]
Track 21 accurately ripped (confidence 1) [B0A016B7]
Track 22 accurately ripped (confidence 1) [83C56866]
Track 23 accurately ripped (confidence 1) [81564431]

All tracks accurately ripped

End of status report


Exact Audio Copy V0.99 prebeta 5 from 4. May 2009

EAC extraction logfile from 28. December 2009, 21:41

Various Artists / Tom Middleton Presents Crazy Covers 2 (CD2)

Used drive : HP DVD Writer 1040r Adapter: 1 ID: 0

Read mode : Secure
Utilize accurate stream : Yes
Defeat audio cache : Yes
Make use of C2 pointers : No

Read offset correction : 6
Overread into Lead-In and Lead-Out : No
Fill up missing offset samples with silence : Yes
Delete leading and trailing silent blocks : No
Null samples used in CRC calculations : Yes
Used interface : Native Win32 interface for Win NT & 2000

Used output format : User Defined Encoder
Selected bitrate : 1024 kBit/s
Quality : High
Add ID3 tag : No
Command line compressor : C:\Program Files\Exact Audio Copy\FLAC\FLAC.EXE
Additional command line options : -5 -V -T "ARTIST=%a" -T "TITLE=%t" -T "ALBUM=%g" -T "DATE=%y" -T "TRACKNUMBER=%n" -T "GENRE=%m" -T "COMMENT=EAC Flac 1.1.2 -5" %s


TOC of the extracted CD

Track | Start | Length | Start sector | End sector
––––––––––––––––––––––––––––-
1 | 0:00.00 | 4:27.49 | 0 | 20073
2 | 4:27.49 | 4:38.53 | 20074 | 40976
3 | 9:06.27 | 4:56.31 | 40977 | 63207
4 | 14:02.58 | 3:37.05 | 63208 | 79487
5 | 17:39.63 | 1:58.70 | 79488 | 88407
6 | 19:38.58 | 2:39.37 | 88408 | 100369
7 | 22:18.20 | 3:22.51 | 100370 | 115570
8 | 25:40.71 | 4:25.46 | 115571 | 135491
9 | 30:06.42 | 3:15.42 | 135492 | 150158
10 | 33:22.09 | 3:14.38 | 150159 | 164746
11 | 36:36.47 | 3:58.00 | 164747 | 182596
12 | 40:34.47 | 3:15.28 | 182597 | 197249
13 | 43:50.00 | 4:46.09 | 197250 | 218708
14 | 48:36.09 | 4:22.41 | 218709 | 238399
15 | 52:58.50 | 3:35.24 | 238400 | 254548
16 | 56:33.74 | 4:45.34 | 254549 | 275957
17 | 61:19.33 | 3:21.27 | 275958 | 291059


Range status and errors

Selected range

Filename C:\Users\Mike3\Desktop\Tom Middleton Presents Crazy Covers 2 (Flac)\Disc 2 - Beautiful Covers\Various Artists - Tom Middleton Presents Crazy Covers 2 (CD2).wav

Suspicious position 1:04:40

Peak level 100.0 %
Range quality 99.9 %
Copy CRC B9601A8E
Copy finished

There were errors


AccurateRip summary

Track 1 accurately ripped (confidence 1) [F7C98CB5]
Track 2 accurately ripped (confidence 1) [4E0BF6E9]
Track 3 accurately ripped (confidence 1) [707CB9F4]
Track 4 accurately ripped (confidence 1) [1D1A8FC6]
Track 5 accurately ripped (confidence 1) [C2D0BB10]
Track 6 accurately ripped (confidence 1) [BB279F0C]
Track 7 accurately ripped (confidence 1) [5395E0B9]
Track 8 accurately ripped (confidence 1) [761EF1BC]
Track 9 accurately ripped (confidence 1) [49C701F5]
Track 10 accurately ripped (confidence 1) [F47E222C]
Track 11 accurately ripped (confidence 1) [72DF4BC5]
Track 12 accurately ripped (confidence 1) [4E970C96]
Track 13 accurately ripped (confidence 1) [C6A4D0F8]
Track 14 accurately ripped (confidence 1) [DB935FB6]
Track 15 accurately ripped (confidence 1) [1FA42BC2]
Track 16 accurately ripped (confidence 1) [CF9BCC72]
Track 17 cannot be verified as accurate (confidence 1) [DFB969EE], AccurateRip returned [8162495C]

16 track(s) accurately ripped
1 track(s) could not be verified as accurate

Some tracks could not be verified as accurate

End of status report

Files
Lame 320 Kbps = 326MB
Flac 907 Kbps ABR = 911MB





No mirrors