Subcategories

Crow - Mosaic (1971) [Reissue 2011]

Posted By: antonyart
Crow - Mosaic (1971) [Reissue 2011]

Crow - Mosaic (1971) [Reissue 2011]
EAC Rip | FLAC (IMG+CUE+LOG) | 251 MB | Complete HQ Scans 600 dpi JPG included | MP3 Lame 320 CBR | 97 MB
Genre: Heavy Blues Rock / Hard Rock | RAR 5% Rec. | Label: Austria Record Finder (ARF 112) | Uploaded, Depositfiles

Best stuff I have heard from this band. Almost like a cross between Black Oak Arkansas and Led Zeppelin although not nearly as heavy as either in their prime. Only a few to diverse tracks, and cool cover to boot. A buck well spent. - from rateyourmusic -
Crow - Mosaic (1971) [Reissue 2011]

Tracklist:

01. (Don't Try To Lay No Boogie Woogie On The) King Of Rock & Roll 02:32
02. Easy Street 05:03
03. Yellow Dawg 03:02
04. Sky Is Crying 06:00
05. I Need Love 04:22
06. Keeps Me Runnin' 02:58
07. Watching Can Waste Up Time 04:04
08. Satisfied 05:15
09. Watch That Cat 05:30
10. Let's Not Say Goodbye 05:06

Total: 43:53

Exact Audio Copy V1.0 beta 3 from 29. August 2011

EAC extraction logfile from 16. January 2013, 19:34

Crow / Mosaic

Used drive : HL-DT-STDVDRAM GT34N Adapter: 0 ID: 2

Read mode : Secure
Utilize accurate stream : Yes
Defeat audio cache : Yes
Make use of C2 pointers : No

Read offset correction : 103
Overread into Lead-In and Lead-Out : No
Fill up missing offset samples with silence : Yes
Delete leading and trailing silent blocks : No
Null samples used in CRC calculations : Yes
Used interface : Native Win32 interface for Win NT & 2000

Used output format : User Defined Encoder
Selected bitrate : 896 kBit/s
Quality : High
Add ID3 tag : Yes
Command line compressor : C:\Program Files (x86)\Exact Audio Copy\FLAC\FLAC.EXE
Additional command line options : -6 -V -T "ARTIST=%artist%" -T "TITLE=%title%" -T "ALBUM=%albumtitle%" -T "DATE=%year%" -T "TRACKNUMBER=%tracknr%" -T "GENRE=%genre%" -T "COMMENT=%comment%" -T "BAND=%albuminterpret%" -T "ALBUMARTIST=%albuminterpret%" -T "COMPOSER=%composer%" %haslyrics%–tag-from-file=LYRICS="%lyricsfile%"%haslyrics% -T "DISCNUMBER=%cdnumber%" -T "TOTALDISCS=%totalcds%" -T "TOTALTRACKS=%numtracks%" %hascover%–picture="%coverfile%"%hascover% %source% -o %dest%


TOC of the extracted CD

Track | Start | Length | Start sector | End sector
––––––––––––––––––––––––––––-
1 | 0:00.00 | 2:32.37 | 0 | 11436
2 | 2:32.37 | 5:03.10 | 11437 | 34171
3 | 7:35.47 | 3:02.00 | 34172 | 47821
4 | 10:37.47 | 6:00.30 | 47822 | 74851
5 | 16:38.02 | 4:21.72 | 74852 | 94498
6 | 20:59.74 | 2:57.38 | 94499 | 107811
7 | 23:57.37 | 4:03.52 | 107812 | 126088
8 | 28:01.14 | 5:15.35 | 126089 | 149748
9 | 33:16.49 | 5:30.21 | 149749 | 174519
10 | 38:46.70 | 5:06.25 | 174520 | 197494


Range status and errors

Selected range

Filename D:\FLAC\CROW -71- Mosaic\Crow - Mosaic.wav

Peak level 100.0 %
Extraction speed 2.0 X
Range quality 100.0 %
Test CRC 62344734
Copy CRC 62344734
Copy OK

No errors occurred


AccurateRip summary

Track 1 accurately ripped (confidence 1) [8E27E2ED] (AR v1)
Track 2 accurately ripped (confidence 1) [B273D2EB] (AR v1)
Track 3 accurately ripped (confidence 1) [02FC221B] (AR v1)
Track 4 accurately ripped (confidence 1) [786F922B] (AR v1)
Track 5 accurately ripped (confidence 1) [46CFBCCF] (AR v1)
Track 6 accurately ripped (confidence 1) [4C18C841] (AR v1)
Track 7 accurately ripped (confidence 1) [827DDDC7] (AR v1)
Track 8 accurately ripped (confidence 1) [BB0C5F68] (AR v1)
Track 9 accurately ripped (confidence 1) [44E14C2F] (AR v1)
Track 10 accurately ripped (confidence 1) [44F0D815] (AR v1)

All tracks accurately ripped

End of status report

==== Log checksum CCA5A958976CE17773E09F6ED2CB2B83424351AE51E3AF8BFC148EDB99B96BA8 ====

foobar2000 1.1.9 / Dynamic Range Meter 1.1.1
log date: 2013-02-20 14:59:12

––––––––––––––––––––––––––––––––––––––––
Analyzed: Crow / Mosaic
––––––––––––––––––––––––––––––––––––––––

DR Peak RMS Duration Track
––––––––––––––––––––––––––––––––––––––––
DR7 -0.10 dB -8.25 dB 2:32 01-(Don't Try To Lay No Boogie Woogie On The) King Of Rock & Roll
DR7 -0.10 dB -10.49 dB 5:03 02-Easy Street
DR7 -0.10 dB -9.86 dB 3:02 03-Yellow Dawg
DR8 -0.10 dB -10.40 dB 6:00 04-Sky Is Crying
DR10 -0.10 dB -12.67 dB 4:22 05-I Need Love
DR8 -0.10 dB -10.83 dB 2:58 06-Keeps Me Runnin'
DR9 -0.10 dB -11.94 dB 4:04 07-Watching Can Waste Up The Time
DR8 0.00 dB -10.59 dB 5:15 08-Satisfied
DR8 -0.10 dB -9.83 dB 5:30 09-Watch That Cat
DR8 -0.10 dB -10.08 dB 5:06 10-Let's Not Say Goodbye
––––––––––––––––––––––––––––––––––––––––

Number of tracks: 10
Official DR value: DR8

Samplerate: 44100 Hz
Channels: 2
Bits per sample: 16
Bitrate: 821 kbps
Codec: FLAC
================================================================================

Minneapolis blues-rock quintet Crow was formed in 1967 by frontman Dave Wagner, guitarist Dick Weigand, his bassist brother Larry, and keyboardist Kink Middlemist. Originally dubbed South 40, they added former Castaways drummer Denny Craswell to the lineup prior to recording their 1969 debut LP, Crow Music, for the Amaret label; the single "Evil Woman Don't You Play Your Games with Me" cracked the U.S. Top 20, even though its distinctive horn arrangement was overdubbed against the band's wishes. Crow by Crow followed in 1970, although the single "Cottage Cheese" failed to attract much attention. In the wake of 1971's Mosaic, Crow disbanded, although Wagner resurfaced in 1973 with a solo LP, David Wagner D/B/A Crow.

from allmusic

Crow - Mosaic (1971) [Reissue 2011]


This CD is from my personal collection. My original rip & my scan work.
>> here is my blog with all my rips <<
Please, do not mirror these links at any web pages.


>> Crow - Crow Music (1969) [Reissue 2010] <<
FLAC + HQ 600 dpi complete scans:

Uploaded

Depositfiles

MP3 + 300 dpi front/back cover scans:

Uploaded

Depositfiles


Password: Ant