Subcategories

The Dead Tones - Six Feet Down...And Rising (2008)

Posted By: TestTickles
The Dead Tones - Six Feet Down...And Rising (2008)

The Dead Tones - Six Feet Down…And Rising (2008)
EAC Rip | FLAC with CUE and log | scans | 231 mb
MP3 CBR 320kbps | RAR | 87 mb
Genre: indie rock, psychobilly

Six Feet Down…And Rising is the 2008 second album by non-morbid rockers The Dead Tones. This is a self-released project.

The Dead Tones - Six Feet Down...And Rising (2008)

01. You Dismember Me
02. Dead Alive
03. Real Gone Monster
04. Waiting For The Grave
05. Creep With Me
06. Pine Box Blues
07. It Came From The Shower Floor
08. I Dig Your Grave
09. Go Witch Go
10. I, Madman
11. Something Weird
12. Murder Bop

Andrew See-vocals & upright bass
Shawn Awful-guitar
Tabitha Adams-farfisa organ
Maggie Rickard-drums

Recorded by Nathan Sabatino @ Loveland Studios

The Dead Tones - Six Feet Down...And Rising (2008)


Exact Audio Copy V0.99 prebeta 4 from 23. January 2008

EAC extraction logfile from 24. August 2009, 6:38

The Dead Tones / Six Feet Down…And Rising

Used drive : TSSTcorpDVD+-RW TS-H653B Adapter: 2 ID: 0

Read mode : Secure
Utilize accurate stream : Yes
Defeat audio cache : Yes
Make use of C2 pointers : No

Read offset correction : 6
Overread into Lead-In and Lead-Out : No
Fill up missing offset samples with silence : Yes
Delete leading and trailing silent blocks : No
Null samples used in CRC calculations : Yes
Used interface : Native Win32 interface for Win NT & 2000
Gap handling : Appended to previous track

Used output format : Internal WAV Routines
Sample format : 44.100 Hz; 16 Bit; Stereo


TOC of the extracted CD

Track | Start | Length | Start sector | End sector
––––––––––––––––––––––––––––-
1 | 0:00.00 | 2:04.49 | 0 | 9348
2 | 2:04.49 | 2:52.70 | 9349 | 22318
3 | 4:57.44 | 2:06.20 | 22319 | 31788
4 | 7:03.64 | 2:29.00 | 31789 | 42963
5 | 9:32.64 | 2:11.38 | 42964 | 52826
6 | 11:44.27 | 2:49.74 | 52827 | 65575
7 | 14:34.26 | 2:40.49 | 65576 | 77624
8 | 17:15.00 | 2:36.32 | 77625 | 89356
9 | 19:51.32 | 2:18.71 | 89357 | 99777
10 | 22:10.28 | 1:52.06 | 99778 | 108183
11 | 24:02.34 | 2:44.47 | 108184 | 120530
12 | 26:47.06 | 2:16.25 | 120531 | 130755


Track 1

Filename C:\FLAC\The Dead Tones - Six Feet Down…And Rising (2008) [FLAC]\01 - You Dismember Me.wav

Pre-gap length 0:00:02.00

Peak level 97.7 %
Track quality 100.0 %
Test CRC 9855C180
Copy CRC 9855C180
Track not present in AccurateRip database
Copy OK

Track 2

Filename C:\FLAC\The Dead Tones - Six Feet Down…And Rising (2008) [FLAC]\02 - Dead Alive.wav

Pre-gap length 0:00:02.00

Peak level 97.7 %
Track quality 100.0 %
Test CRC 7FF3275E
Copy CRC 7FF3275E
Track not present in AccurateRip database
Copy OK

Track 3

Filename C:\FLAC\The Dead Tones - Six Feet Down…And Rising (2008) [FLAC]\03 - Real Gone Monster.wav

Pre-gap length 0:00:02.00

Peak level 97.7 %
Track quality 100.0 %
Test CRC 4DB1732E
Copy CRC 4DB1732E
Track not present in AccurateRip database
Copy OK

Track 4

Filename C:\FLAC\The Dead Tones - Six Feet Down…And Rising (2008) [FLAC]\04 - Waiting For The Grave.wav

Pre-gap length 0:00:02.00

Peak level 97.7 %
Track quality 100.0 %
Test CRC BC32DCF4
Copy CRC BC32DCF4
Track not present in AccurateRip database
Copy OK

Track 5

Filename C:\FLAC\The Dead Tones - Six Feet Down…And Rising (2008) [FLAC]\05 - Creep With Me.wav

Pre-gap length 0:00:02.00

Peak level 97.7 %
Track quality 99.9 %
Test CRC 02C2C782
Copy CRC 02C2C782
Track not present in AccurateRip database
Copy OK

Track 6

Filename C:\FLAC\The Dead Tones - Six Feet Down…And Rising (2008) [FLAC]\06 - Pine Box Blues.wav

Pre-gap length 0:00:02.00

Peak level 97.7 %
Track quality 99.9 %
Test CRC 00B207C5
Copy CRC 00B207C5
Track not present in AccurateRip database
Copy OK

Track 7

Filename C:\FLAC\The Dead Tones - Six Feet Down…And Rising (2008) [FLAC]\07 - It Came From The Shower Floor.wav

Pre-gap length 0:00:02.00

Peak level 97.7 %
Track quality 100.0 %
Test CRC FE83CAA5
Copy CRC FE83CAA5
Track not present in AccurateRip database
Copy OK

Track 8

Filename C:\FLAC\The Dead Tones - Six Feet Down…And Rising (2008) [FLAC]\08 - I Dig Your Grave.wav

Pre-gap length 0:00:02.00

Peak level 97.7 %
Track quality 100.0 %
Test CRC 52987531
Copy CRC 52987531
Track not present in AccurateRip database
Copy OK

Track 9

Filename C:\FLAC\The Dead Tones - Six Feet Down…And Rising (2008) [FLAC]\09 - Go Witch Go.wav

Pre-gap length 0:00:02.00

Peak level 97.7 %
Track quality 100.0 %
Test CRC 26AE59D9
Copy CRC 26AE59D9
Track not present in AccurateRip database
Copy OK

Track 10

Filename C:\FLAC\The Dead Tones - Six Feet Down…And Rising (2008) [FLAC]\10 - I, Madman.wav

Pre-gap length 0:00:02.00

Peak level 97.7 %
Track quality 100.0 %
Test CRC 676B1D3B
Copy CRC 676B1D3B
Track not present in AccurateRip database
Copy OK

Track 11

Filename C:\FLAC\The Dead Tones - Six Feet Down…And Rising (2008) [FLAC]\11 - Something Weird.wav

Pre-gap length 0:00:02.00

Peak level 97.7 %
Track quality 100.0 %
Test CRC 8DF3D10B
Copy CRC 8DF3D10B
Track not present in AccurateRip database
Copy OK

Track 12

Filename C:\FLAC\The Dead Tones - Six Feet Down…And Rising (2008) [FLAC]\12 - Murder Bop.wav

Pre-gap length 0:00:02.00

Peak level 97.7 %
Track quality 100.0 %
Test CRC A72D423B
Copy CRC A72D423B
Track not present in AccurateRip database
Copy OK


None of the tracks are present in the AccurateRip database

No errors occurred

End of status report


The Dead Tones - Six Feet Down...And Rising (2008)